- | 2017 | WEBRip -
  • 11
  • 1
  • 32
  • 0
  • 0
  • 1
1.05 GB (1,123,475,456)
2017-07-23 23:19:15 2017-07-23 23:20:18
  http://s018.radikal.ru/i507/1605/a4/ac035f69f65b.gif
, .
:
!

...
General
Complete name : C:\Users\User\Desktop\ (3)\Alexandr.Rozenbaum-Luchshie.pesni.2017.XviD.WEBRip-.avi
Format: AVI
Format/Info : Audio Video Interleave
File size : 1.05 GiB
Duration: 1 h 11 min
Overall bit rate: 2 100 kb/s
Writing application : VirtualDubMod 1.5.10.3 | www.virtualdub-fr.org || (build 2550/release)
Writing library : VirtualDubMod build 2550/release

Video
ID: 0
Format: MPEG-4 Visual
Format profile: Advanced Simple@L5
Format settings, BVOP : 2
Format settings, QPel : No
Format settings, GMC: No warppoints
Format settings, Matrix : Custom
Codec ID: XVID
Codec ID/Hint : XviD
Duration: 1 h 11 min
Bit rate: 1 963 kb/s
Width : 704 pixels
Height: 400 pixels
Display aspect ratio: 16:9
Frame rate: 25.000 FPS
Color space : YUV
Chroma subsampling: 4:2:0
Bit depth : 8 bits
Scan type : Progressive
Compression mode: Lossy
Bits/(Pixel*Frame): 0.279
Stream size : 1 001 MiB (93%)
Writing library : XviD 65

Audio
ID: 1
Format: MPEG Audio
Format version: Version 1
Format profile: Layer 3
Mode: Joint stereo
Mode extension: MS Stereo
Codec ID: 55
Codec ID/Hint : MP3
Duration: 1 h 11 min
Bit rate mode : Constant
Bit rate: 128 kb/s
Channel(s): 2 channels
Sampling rate : 44.1 kHz
Compression mode: Lossy
Stream size : 65.3 MiB (6%)
Alignment : Split accross interleaves
Interleave, duration: 40ms (1.00 video frame)
Interleave, preload duratio : 500ms
Writing library : LAME3.99r
Encoding settings : -m j -V 4 -q 2 -lowpass 17 -b 128

http://s019.radikal.ru/i630/1707/e4/f8470f66e201t.jpg http://s48.radikal.ru/i122/1707/60/cf7c470ec671t.jpg
http://s019.radikal.ru/i616/1707/5a/fca279b873act.jpg http://s018.radikal.ru/i523/1707/a1/c80320de49c6t.jpg
http://s48.radikal.ru/i119/1707/b7/9bf1f6a463e8t.jpg http://s41.radikal.ru/i091/1707/cf/67517e43ce43t.jpg
01.
02.
03.
04.
05.
06.
07.
08. ,
09.
10. ,
11.
12.
13.
14.
15.
16.
17.
18.
19.
20.
21.
22.


,

ExKinoRay.TV

, , , , , . . .