- | 2015 | WEBRip -
  • 8
  • 0
  • 30
  • 0
  • 0
  • 1
771.93 MB (809,428,992)
2017-07-24 18:34:40 2017-07-24 18:34:56
  http://s018.radikal.ru/i507/1605/a4/ac035f69f65b.gif
, .
:
!

...
General
Complete name : C:\Users\User\Desktop\ (3)\Denis.Maydanov-Luchshie.pesni.2017.XviD.WEBRip-.avi
Format: AVI
Format/Info : Audio Video Interleave
File size : 772 MiB
Duration: 51 min 41 s
Overall bit rate: 2 088 kb/s
Writing application : VirtualDubMod 1.5.10.3 | www.virtualdub-fr.org || (build 2550/release)
Writing library : VirtualDubMod build 2550/release

Video
ID: 0
Format: MPEG-4 Visual
Format profile: Advanced Simple@L5
Format settings, BVOP : 2
Format settings, QPel : No
Format settings, GMC: No warppoints
Format settings, Matrix : Custom
Codec ID: XVID
Codec ID/Hint : XviD
Duration: 51 min 41 s
Bit rate: 1 950 kb/s
Width : 704 pixels
Height: 400 pixels
Display aspect ratio: 16:9
Frame rate: 25.000 FPS
Color space : YUV
Chroma subsampling: 4:2:0
Bit depth : 8 bits
Scan type : Progressive
Compression mode: Lossy
Bits/(Pixel*Frame): 0.277
Stream size : 721 MiB (93%)
Writing library : XviD 65

Audio
ID: 1
Format: MPEG Audio
Format version: Version 1
Format profile: Layer 3
Mode: Joint stereo
Mode extension: MS Stereo
Codec ID: 55
Codec ID/Hint : MP3
Duration: 51 min 41 s
Bit rate mode : Constant
Bit rate: 128 kb/s
Channel(s): 2 channels
Sampling rate : 44.1 kHz
Compression mode: Lossy
Stream size : 47.3 MiB (6%)
Alignment : Split accross interleaves
Interleave, duration: 40ms (1.00 video frame)
Interleave, preload duratio : 500ms
Writing library : LAME3.99r
Encoding settings : -m j -V 4 -q 2 -lowpass 17 -b 128

http://s019.radikal.ru/i600/1707/05/2eb1d6415600t.jpg http://s014.radikal.ru/i329/1707/ee/d07d4a5fd3e8t.jpg
http://s019.radikal.ru/i630/1707/22/4e8e241a4db6t.jpg http://i057.radikal.ru/1707/93/d0d492640498t.jpg
http://s019.radikal.ru/i632/1707/d2/9cce39b77271t.jpg http://s008.radikal.ru/i303/1707/52/cad695067b48t.jpg
01.
02.
03.
04. 48
05.
06.
07.
08. -
09.
10.
11. ( . )
12. 36,6
13.


,

ExKinoRay.TV

, , , , , . . .