- | 2015 | WEBRip -
  • 3
  • 0
  • 37
  • 0
  • 0
  • 1
1.09 GB (1,170,227,200)
2017-07-24 20:24:49 2017-07-24 20:25:13
  http://s018.radikal.ru/i507/1605/a4/ac035f69f65b.gif
, .
:
!

...
General
Complete name : C:\Users\User\Desktop\ (3)\Batirhan.Shukenov-Luchshie.pesni.2015.XviD.WEBRip-.avi
Format: AVI
Format/Info : Audio Video Interleave
File size : 1.09 GiB
Duration: 1 h 14 min
Overall bit rate: 2 087 kb/s
Writing application : VirtualDubMod 1.5.10.3 | www.virtualdub-fr.org || (build 2550/release)
Writing library : VirtualDubMod build 2550/release

Video
ID: 0
Format: MPEG-4 Visual
Format profile: Advanced Simple@L5
Format settings, BVOP : 2
Format settings, QPel : No
Format settings, GMC: No warppoints
Format settings, Matrix : Custom
Codec ID: XVID
Codec ID/Hint : XviD
Duration: 1 h 14 min
Bit rate: 1 950 kb/s
Width : 704 pixels
Height: 400 pixels
Display aspect ratio: 16:9
Frame rate: 23.976 (24000/1001) FPS
Original frame rate : 23.976 (23976/1000) FPS
Color space : YUV
Chroma subsampling: 4:2:0
Bit depth : 8 bits
Scan type : Progressive
Compression mode: Lossy
Bits/(Pixel*Frame): 0.289
Stream size : 1.02 GiB (93%)
Writing library : XviD 65

Audio
ID: 1
Format: MPEG Audio
Format version: Version 1
Format profile: Layer 3
Mode: Joint stereo
Codec ID: 55
Codec ID/Hint : MP3
Duration: 1 h 14 min
Bit rate mode : Constant
Bit rate: 128 kb/s
Channel(s): 2 channels
Sampling rate : 44.1 kHz
Compression mode: Lossy
Stream size : 68.4 MiB (6%)
Alignment : Split accross interleaves
Interleave, duration: 42ms (1.00 video frame)
Interleave, preload duratio : 500ms
Writing library : LAME3.99r
Encoding settings : -m j -V 4 -q 2 -lowpass 17 -b 128

http://s019.radikal.ru/i631/1707/3d/e8ba7658ee71t.jpg http://s018.radikal.ru/i507/1707/f2/befe531f53d9t.jpg
http://s019.radikal.ru/i641/1707/08/5a3e0f602f3bt.jpg http://s002.radikal.ru/i198/1707/6b/17d5b40c22d0t.jpg
http://s018.radikal.ru/i509/1707/75/03a7d29b0b80t.jpg http://s018.radikal.ru/i526/1707/19/bc93c61e4a38t.jpg
01.
02. & A`Studio - (live)
03.
04.
05.
06.
07.
08.
09.
10. ( )
11.
12. 20
13.
14.
15.
16.
17.
18.
19. ( )


,

ExKinoRay.TV

, , , , , . . .