- | 2014 | WEBRip -
  • 2
  • 0
  • 35
  • 0
  • 1
  • 1
0.98 GB (1,050,015,744)
2017-07-25 18:49:01 2017-07-25 18:49:19
  http://s018.radikal.ru/i507/1605/a4/ac035f69f65b.gif
, .
:
!

...
General
Complete name : C:\Users\User\Desktop\ (3)\Lesopoval-Luchshie.pesni.2014.XviD.WEBRip-.avi
Format: AVI
Format/Info : Audio Video Interleave
File size : 1 001 MiB
Duration: 1 h 7 min
Overall bit rate: 2 087 kb/s
Writing application : VirtualDubMod 1.5.10.3 | www.virtualdub-fr.org || (build 2550/release)
Writing library : VirtualDubMod build 2550/release

Video
ID: 0
Format: MPEG-4 Visual
Format profile: Advanced Simple@L5
Format settings, BVOP : 2
Format settings, QPel : No
Format settings, GMC: No warppoints
Format settings, Matrix : Custom
Codec ID: XVID
Codec ID/Hint : XviD
Duration: 1 h 7 min
Bit rate: 1 950 kb/s
Width : 704 pixels
Height: 400 pixels
Display aspect ratio: 16:9
Frame rate: 25.000 FPS
Color space : YUV
Chroma subsampling: 4:2:0
Bit depth : 8 bits
Scan type : Progressive
Compression mode: Lossy
Bits/(Pixel*Frame): 0.277
Stream size : 935 MiB (93%)
Writing library : XviD 65

Audio
ID: 1
Format: MPEG Audio
Format version: Version 1
Format profile: Layer 3
Mode: Joint stereo
Mode extension: MS Stereo
Codec ID: 55
Codec ID/Hint : MP3
Duration: 1 h 7 min
Bit rate mode : Constant
Bit rate: 128 kb/s
Channel(s): 2 channels
Sampling rate : 44.1 kHz
Compression mode: Lossy
Stream size : 61.4 MiB (6%)
Alignment : Split accross interleaves
Interleave, duration: 40ms (1.00 video frame)
Interleave, preload duratio : 500ms
Writing library : LAME3.99r
Encoding settings : -m j -V 4 -q 2 -lowpass 17 -b 128

http://s012.radikal.ru/i320/1707/26/b1dfa55ed6a8t.jpg http://i057.radikal.ru/1707/1e/ff1f8a54ef5et.jpg
http://i056.radikal.ru/1707/56/008f2216f850t.jpg http://s019.radikal.ru/i621/1707/de/11d7f9714b68t.jpg
http://s013.radikal.ru/i322/1707/9a/b6a49069ca0bt.jpg http://s018.radikal.ru/i523/1707/67/5b5f58a2a574t.jpg
01.
02. -
03. -
04.
05. ׸
06.
07.
08.
09.
10.
11.
12.
13.
14.
15.
16. (. )

gintars | 2017-07-25 20:44:33
 
. , . ..
  |

:  1 
,

ExKinoRay.TV

, , , , , . . .