- | 2014 | WEBRip -
  • 14
  • 1
  • 38
  • 0
  • 0
  • 1
1.09 GB (1,171,427,328)
2017-07-25 19:55:16 2017-07-25 19:55:52
  http://s018.radikal.ru/i507/1605/a4/ac035f69f65b.gif
, .
:
!

...
General
Complete name : C:\Users\User\Desktop\ (4)\Grigorii.Leps-Luchshie.pesni.2014.XviD.WEBRip-.avi
Format: AVI
Format/Info : Audio Video Interleave
File size : 1.09 GiB
Duration: 1 h 32 min
Overall bit rate: 1 687 kb/s
Writing application : VirtualDubMod 1.5.10.3 | www.virtualdub-fr.org || (build 2550/release)
Writing library : VirtualDubMod build 2550/release

Video
ID: 0
Format: MPEG-4 Visual
Format profile: Advanced Simple@L5
Format settings, BVOP : 2
Format settings, QPel : No
Format settings, GMC: No warppoints
Format settings, Matrix : Custom
Codec ID: XVID
Codec ID/Hint : XviD
Duration: 1 h 32 min
Bit rate: 1 550 kb/s
Width : 704 pixels
Height: 400 pixels
Display aspect ratio: 16:9
Frame rate: 23.976 (24000/1001) FPS
Color space : YUV
Chroma subsampling: 4:2:0
Bit depth : 8 bits
Scan type : Progressive
Compression mode: Lossy
Bits/(Pixel*Frame): 0.230
Stream size : 1.00 GiB (92%)
Writing library : XviD 65

Audio
ID: 1
Format: MPEG Audio
Format version: Version 1
Format profile: Layer 3
Mode: Joint stereo
Mode extension: MS Stereo
Codec ID: 55
Codec ID/Hint : MP3
Duration: 1 h 32 min
Bit rate mode : Constant
Bit rate: 128 kb/s
Channel(s): 2 channels
Sampling rate : 44.1 kHz
Compression mode: Lossy
Stream size : 84.8 MiB (8%)
Alignment : Split accross interleaves
Interleave, duration: 42ms (1.00 video frame)
Interleave, preload duratio : 500ms
Writing library : LAME3.99r
Encoding settings : -m j -V 4 -q 2 -lowpass 17 -b 128

http://s019.radikal.ru/i631/1707/e0/af4ab11c5c4et.jpg http://s016.radikal.ru/i337/1707/56/5b893fdb5962t.jpg
http://i013.radikal.ru/1707/9e/9585b3be580et.jpg http://s018.radikal.ru/i526/1707/78/c973613e29cft.jpg
http://s019.radikal.ru/i620/1707/26/9e86e869431at.jpg http://s019.radikal.ru/i640/1707/a9/d46d6c91d1f6t.jpg
01.
02.
03.
04.
05.
06.
07. ,
08.
09.
10.
11.
12.
13.
14.
15.
16.
17.
16.
17. -
18. -
19. ( )
20.
21.


,

ExKinoRay.TV

, , , , , . . .