Экстро | Xtro | 1982 | BDRip (720p) | AVO - Bathory Одобрено администрацией

Участники
  • Раздают0
  • Качают0
  • Просмотров193
  • Скачали2
  • Комментариев0
  • Список файлов1
Залил раздачу
Поблагодарить
Характеристики
Вес4.15 GB (4,454,914,674)
Залит2017-10-04 18:19:06 Обновлено2017-10-04 23:48:55
Сетевая Нет
  http://i94.fastpic.ru/big/2017/0710/6a/00efe7c80d1a2111200432d0312c716a.gif
Чтобы скачать, необходимо авторизоваться или зарегистрироваться.
Статус: Одобрено администрацией
Хотите видеть детали Раздачи пройдите авторизацию или регистрацию!

Спасибо за понимание...
Аудио:  AC3, 2 ch, 224 Кбит/с - AVO (Горчачов)
Аудио:  AC3, 2 ch, 224 Кбит/с - AVO (Гаврилов)
Аудио:  AC3, 2 ch, 224 Кбит/с - AVO (Михалёв)
Аудио:  AC3, 2 ch, 224 Кбит/с - AVO (Визгунов)
Аудио:  AC3, 2 ch, 224 Кбит/с - AVO (Немахов)
Аудио:  AC3, 6 ch, 448 Кбит/с - Original (ENG)

Код
1
2
3
4
5
6
7
8
9
10
11
12
13
14
15
16
17
18
19
20
21
22
23
24
25
26
27
28
29
30
31
32
33
34
35
36
37
38
39
40
41
42
43
44
45
46
47
48
49
50
51
52
53
54
55
56
57
58
59
60
61
62
63
64
65
66
67
68
69
70
71
72
73
74
75
76
77
78
79
80
81
82
83
84
85
86
87
88
89
90
91
92
93
94
95
96
97
98
99
100
101
102
103
104
105
106
107
108
109
110
111
112
113
114
115
116
117
118
119
120
121
122
123
124
125
126
127
128
129
130
131
132
133
134
135
136
137
138
139
140
141
142
143
144
145
146
147
148
149
150
151
152
153
154
155
156
157
158
159
160
161
162
163
164
165
166
167
168
169
170
171
172
173
174
175
176
177
178
179
180
181
182
183
184
185
186
187
188
189
190
191
192
193
194
195
196
197
198
199
200
201
202
203
204
205
206
207
208
209
210
Общее
Unique ID                                : 248239925346633328675867009884596324050 (0xBAC1454388FA0486925C6540FEC9C6D2)
Complete name                            : E:\Xtro.1982.BDRip.720p.MegaPeer.mkv
Format                                   : Matroska
Format version                           : Version 4 / Version 2
File size                                : 4,15 Гбайт
Duration                                 : 1 ч. 26 м.
Overall bit rate                         : 6838 Кбит/сек
Movie name                               : Xtro
Encoded date                             : UTC 2017-10-04 13:03:24
Writing application                      : mkvmerge v15.0.0 ('Duel with the Devil') 64-bit
Writing library                          : libebml v1.3.5 + libmatroska v1.4.5

Видео
ID                                       : 1
Format                                   : AVC
Format/Info                              : Advanced Video Codec
Format profile                           : High@L4.1
Format settings, CABAC                   : Да
Format settings, RefFrames               : 9 кадров
Codec ID                                 : V_MPEG4/ISO/AVC
Duration                                 : 1 ч. 26 м.
Bit rate                                 : 5272 Кбит/сек
Width                                    : 1280 пикселей
Height                                   : 720 пикселей
Display aspect ratio                     : 16:9
Frame rate mode                          : Постоянный
Frame rate                               : 23,976 (24000/1001) кадра/сек
Color space                              : YUV
Chroma subsampling                       : 4:2:0
Bit depth                                : 8 бит
Scan type                                : Прогрессивная
Bits/(Pixel*Frame)                       : 0.239
Stream size                              : 3,20 Гбайт (77%)
Writing library                          : x264 core 152 r2851kMod ba24899
Encoding settings                        : cabac=1 / ref=9 / deblock=1:-2:-2 / analyse=0x3:0x113 / me=umh / subme=11 / psy=1 / fade_compensate=0.00 / psy_rd=1.00:0.07 / mixed_ref=1 / me_range=32 / chroma_me=1 / trellis=2 / 8x8dct=1 / cqm=0 / deadzone=21,11 / fast_pskip=0 / chroma_qp_offset=-3 / threads=12 / lookahead_threads=3 / sliced_threads=0 / nr=0 / decimate=0 / interlaced=0 / bluray_compat=0 / constrained_intra=0 / bframes=11 / b_pyramid=2 / b_adapt=2 / b_bias=0 / direct=3 / weightb=1 / open_gop=0 / weightp=2 / keyint=240 / keyint_min=23 / scenecut=40 / intra_refresh=0 / rc_lookahead=60 / rc=2pass / mbtree=0 / bitrate=5272 / ratetol=1.0 / qcomp=0.60 / qpmin=0 / qpmax=69 / qpstep=4 / cplxblur=20.0 / qblur=0.5 / vbv_maxrate=50000 / vbv_bufsize=62500 / nal_hrd=none / filler=0 / ip_ratio=1.40 / pb_ratio=1.30 / aq=3:1.00
Default                                  : Да
Forced                                   : Нет

Аудио #1
ID                                       : 2
Format                                   : AC-3
Format/Info                              : Audio Coding 3
Format settings, Endianness              : Big
Codec ID                                 : A_AC3
Duration                                 : 1 ч. 26 м.
Bit rate mode                            : Постоянный
Bit rate                                 : 224 Кбит/сек
Channel(s)                               : 2 канала
Channel positions                        : Front: L R
Sampling rate                            : 48,0 КГц
Frame rate                               : 31,250 кадров/сек (1536 SPF)
Bit depth                                : 16 бит
Compression mode                         : С потерями
Stream size                              : 139 Мбайт (3%)
Title                                    : Gorchakov AC3 2.0 224 kbps
Language                                 : Russian
Service kind                             : Complete Main
Default                                  : Нет
Forced                                   : Нет

Аудио #2
ID                                       : 3
Format                                   : AC-3
Format/Info                              : Audio Coding 3
Format settings, Endianness              : Big
Codec ID                                 : A_AC3
Duration                                 : 1 ч. 26 м.
Bit rate mode                            : Постоянный
Bit rate                                 : 224 Кбит/сек
Channel(s)                               : 2 канала
Channel positions                        : Front: L R
Sampling rate                            : 48,0 КГц
Frame rate                               : 31,250 кадров/сек (1536 SPF)
Bit depth                                : 16 бит
Compression mode                         : С потерями
Stream size                              : 139 Мбайт (3%)
Title                                    : Gavrilov AC3 2.0 224 kbps
Language                                 : Russian
Service kind                             : Complete Main
Default                                  : Нет
Forced                                   : Нет

Аудио #3
ID                                       : 4
Format                                   : AC-3
Format/Info                              : Audio Coding 3
Format settings, Endianness              : Big
Codec ID                                 : A_AC3
Duration                                 : 1 ч. 26 м.
Bit rate mode                            : Постоянный
Bit rate                                 : 224 Кбит/сек
Channel(s)                               : 2 канала
Channel positions                        : Front: L R
Sampling rate                            : 48,0 КГц
Frame rate                               : 31,250 кадров/сек (1536 SPF)
Bit depth                                : 16 бит
Compression mode                         : С потерями
Stream size                              : 139 Мбайт (3%)
Title                                    : Mikhalev AC3 2.0 224 kbps
Language                                 : Russian
Service kind                             : Complete Main
Default                                  : Нет
Forced                                   : Нет

Аудио #4
ID                                       : 5
Format                                   : AC-3
Format/Info                              : Audio Coding 3
Format settings, Endianness              : Big
Codec ID                                 : A_AC3
Duration                                 : 1 ч. 26 м.
Bit rate mode                            : Постоянный
Bit rate                                 : 224 Кбит/сек
Channel(s)                               : 2 канала
Channel positions                        : Front: L R
Sampling rate                            : 48,0 КГц
Frame rate                               : 31,250 кадров/сек (1536 SPF)
Bit depth                                : 16 бит
Compression mode                         : С потерями
Stream size                              : 139 Мбайт (3%)
Title                                    : Vizgunov AC3 2.0 224 kbps
Language                                 : Russian
Service kind                             : Complete Main
Default                                  : Нет
Forced                                   : Нет

Аудио #5
ID                                       : 6
Format                                   : AC-3
Format/Info                              : Audio Coding 3
Format settings, Endianness              : Big
Codec ID                                 : A_AC3
Duration                                 : 1 ч. 26 м.
Bit rate mode                            : Постоянный
Bit rate                                 : 224 Кбит/сек
Channel(s)                               : 2 канала
Channel positions                        : Front: L R
Sampling rate                            : 48,0 КГц
Frame rate                               : 31,250 кадров/сек (1536 SPF)
Bit depth                                : 16 бит
Compression mode                         : С потерями
Stream size                              : 139 Мбайт (3%)
Title                                    : Nemakhov AC3 2.0 224 kbps
Language                                 : Russian
Service kind                             : Complete Main
Default                                  : Нет
Forced                                   : Нет

Аудио #6
ID                                       : 7
Format                                   : AC-3
Format/Info                              : Audio Coding 3
Format settings, Endianness              : Big
Codec ID                                 : A_AC3
Duration                                 : 1 ч. 26 м.
Bit rate mode                            : Постоянный
Bit rate                                 : 448 Кбит/сек
Channel(s)                               : 6 каналов
Channel positions                        : Front: L C R, Side: L R, LFE
Sampling rate                            : 48,0 КГц
Frame rate                               : 31,250 кадров/сек (1536 SPF)
Bit depth                                : 16 бит
Compression mode                         : С потерями
Stream size                              : 278 Мбайт (7%)
Title                                    : Original AC3 5.1 448 kbps
Language                                 : English
Service kind                             : Complete Main
Default                                  : Нет
Forced                                   : Нет

Текст #1
ID                                       : 8
Format                                   : UTF-8
Codec ID                                 : S_TEXT/UTF8
Codec ID/Info                            : UTF-8 Plain Text
Duration                                 : 52 м. 4 с.
Bit rate                                 : 3 бит/сек
Count of elements                        : 23
Stream size                              : 1,28 Кбайт (0%)
Title                                    : Forced
Language                                 : Russian
Default                                  : Да
Forced                                   : Да

Текст #2
ID                                       : 9
Format                                   : UTF-8
Codec ID                                 : S_TEXT/UTF8
Codec ID/Info                            : UTF-8 Plain Text
Duration                                 : 1 ч. 19 м.
Bit rate                                 : 38 бит/сек
Count of elements                        : 571
Stream size                              : 22,3 Кбайт (0%)
Language                                 : German
Default                                  : Нет
Forced                                   : Нет

Меню
00:00:00.000                             : en:00:00:00.000
00:00:00.375                             : en:00:00:00.375
00:13:56.961                             : en:00:13:56.961
00:28:18.989                             : en:00:28:18.989
00:43:42.620                             : en:00:43:42.620
00:59:20.432                             : en:00:59:20.432
01:10:18.423                             : en:01:10:18.423
01:18:56.899                             : en:01:18:56.899
01:24:22.808                             : en:01:24:22.808

     


Привет, гость
- Запомнить
Регистрация
Информация

Торрент трекер ExKinoRay.TV

Здесь вы можете скачать новые фильмы, сериалы, игры, музыку, софт и многое другое. Большая скорость скачивания на мультитрекерных раздачах. Всё абсолютно бесплатно.