Очень плохие девчонки | Rough Night | 2017 | BDRip (AVC) | Dub - Bathory Одобрено администрацией

Участники
  • Раздают0
  • Качают0
  • Просмотров116
  • Скачали1
  • Комментариев0
  • Список файлов1
Залил раздачу
Поблагодарить
Характеристики
Вес745.94 MB (782,179,276)
Залит2017-10-10 20:40:59 Обновлено2017-10-10 21:57:36
Сетевая Нет
  http://i94.fastpic.ru/big/2017/0710/6a/00efe7c80d1a2111200432d0312c716a.gif
Чтобы скачать, необходимо авторизоваться или зарегистрироваться.
Статус: Одобрено администрацией
Хотите видеть детали Раздачи пройдите авторизацию или регистрацию!

Спасибо за понимание...
Код
1
2
3
4
5
6
7
8
9
10
11
12
13
14
15
16
17
18
19
20
21
22
23
24
25
26
27
28
29
30
31
32
33
34
35
36
37
38
39
40
41
42
43
44
45
46
47
48
49
50
51
52
53
54
55
56
57
58
59
60
61
62
63
64
65
66
67
68
69
70
71
72
73
74
75
76
77
78
79
80
81
82
83
84
Общее
Unique ID                                : 203468602713442923719301147114715061997 (0x9912A0A1EDE658B6A8A0936DFC759EED)
Complete name                            : K:\Rough.Night.2017.BDRip-AVC.MegaPeer.mkv
Format                                   : Matroska
Format version                           : Version 4 / Version 2
File size                                : 746 Мбайт
Duration                                 : 1 ч. 40 м.
Overall bit rate                         : 1034 Кбит/сек
Encoded date                             : UTC 2017-10-10 15:52:33
Writing application                      : mkvmerge v15.0.0 ('Duel with the Devil') 64-bit
Writing library                          : libebml v1.3.5 + libmatroska v1.4.5

Видео
ID                                       : 1
Format                                   : AVC
Format/Info                              : Advanced Video Codec
Format profile                           : High@L4.1
Format settings, CABAC                   : Да
Format settings, RefFrames               : 12 кадров
Codec ID                                 : V_MPEG4/ISO/AVC
Duration                                 : 1 ч. 40 м.
Bit rate                                 : 968 Кбит/сек
Width                                    : 784 пикселя
Height                                   : 328 пикселей
Display aspect ratio                     : 2,40:1
Frame rate mode                          : Постоянный
Frame rate                               : 23,976 (24000/1001) кадра/сек
Color space                              : YUV
Chroma subsampling                       : 4:2:0
Bit depth                                : 8 бит
Scan type                                : Прогрессивная
Bits/(Pixel*Frame)                       : 0.157
Stream size                              : 698 Мбайт (94%)
Writing library                          : x264 core 152 r2851 ba24899
Encoding settings                        : cabac=1 / ref=12 / deblock=1:-3:-3 / analyse=0x3:0x133 / me=umh / subme=11 / psy=1 / psy_rd=1.00:0.00 / mixed_ref=1 / me_range=32 / chroma_me=1 / trellis=2 / 8x8dct=1 / cqm=0 / deadzone=21,11 / fast_pskip=0 / chroma_qp_offset=-2 / threads=10 / lookahead_threads=2 / sliced_threads=0 / nr=0 / decimate=0 / interlaced=0 / bluray_compat=0 / constrained_intra=0 / bframes=14 / b_pyramid=2 / b_adapt=2 / b_bias=0 / direct=3 / weightb=1 / open_gop=0 / weightp=2 / keyint=240 / keyint_min=23 / scenecut=40 / intra_refresh=0 / rc_lookahead=60 / rc=2pass / mbtree=0 / bitrate=968 / ratetol=1.0 / qcomp=0.60 / qpmin=0 / qpmax=51 / qpstep=4 / cplxblur=20.0 / qblur=0.5 / vbv_maxrate=50000 / vbv_bufsize=62500 / nal_hrd=none / filler=0 / ip_ratio=1.40 / pb_ratio=1.30 / aq=1:1.00
Default                                  : Да
Forced                                   : Нет

Аудио
ID                                       : 2
Format                                   : AAC
Format/Info                              : Advanced Audio Codec
Format profile                           : LC
Codec ID                                 : A_AAC
Duration                                 : 1 ч. 40 м.
Bit rate                                 : 64,0 Кбит/сек
Channel(s)                               : 2 канала
Channel positions                        : Front: L R
Sampling rate                            : 48,0 КГц
Frame rate                               : 46,875 кадров/сек (1024 SPF)
Compression mode                         : С потерями
Delay relative to video                  : 9 мс.
Stream size                              : 46,2 Мбайт (6%)
Language                                 : Russian
Default                                  : Да
Forced                                   : Нет

Текст #1
ID                                       : 3
Format                                   : UTF-8
Codec ID                                 : S_TEXT/UTF8
Codec ID/Info                            : UTF-8 Plain Text
Duration                                 : 1 ч. 29 м.
Bit rate                                 : 0 бит/сек
Count of elements                        : 5
Stream size                              : 203 байт (0%)
Language                                 : Russian
Default                                  : Да
Forced                                   : Да

Текст #2
ID                                       : 4
Format                                   : UTF-8
Codec ID                                 : S_TEXT/UTF8
Codec ID/Info                            : UTF-8 Plain Text
Duration                                 : 1 ч. 39 м.
Bit rate                                 : 129 бит/сек
Count of elements                        : 2014
Stream size                              : 93,9 Кбайт (0%)
Language                                 : Russian
Default                                  : Нет
Forced                                   : Нет

     


Привет, гость
- Запомнить
Регистрация
Информация

Торрент трекер ExKinoRay.TV

Здесь вы можете скачать новые фильмы, сериалы, игры, музыку, софт и многое другое. Большая скорость скачивания на мультитрекерных раздачах. Всё абсолютно бесплатно.