Ангелы и Демоны | Angels & Demons | 2009 | BDRip (AVC) | Extended Cut | Dub - Bathory Одобрено администрацией

Участники
  • Раздают13
  • Качают1
  • Просмотров63
  • Скачали0
  • Комментариев0
  • Список файлов1
Залил раздачу
Поблагодарить
Характеристики
Вес1.45 GB (1,554,518,251)
Залит2017-10-11 21:21:24 Обновлено0000-00-00 00:00:00
Сетевая Да
  http://i94.fastpic.ru/big/2017/0710/6a/00efe7c80d1a2111200432d0312c716a.gif
Чтобы скачать, необходимо авторизоваться или зарегистрироваться.
Статус: Одобрено администрацией
Хотите видеть детали Раздачи пройдите авторизацию или регистрацию!

Спасибо за понимание...
Код
1
2
3
4
5
6
7
8
9
10
11
12
13
14
15
16
17
18
19
20
21
22
23
24
25
26
27
28
29
30
31
32
33
34
35
36
37
38
39
40
41
42
43
44
45
46
47
48
49
50
51
52
53
54
55
56
57
58
59
60
61
62
63
64
65
66
67
68
69
70
71
72
73
74
75
76
77
78
79
80
81
82
83
84
85
86
87
88
89
90
91
92
93
94
95
96
97
98
99
100
101
102
103
104
105
106
107
108
109
110
111
112
113
114
115
116
117
118
119
120
121
122
123
124
125
126
127
128
129
Общее
Unique ID                                : 172064448785244956468001112285510823565 (0x8172684D3389FB50BF316B686312EE8D)
Complete name                            : K:\Angels.And.Demons.2009.Extended.BDRip-AVC.MegaPeer.mkv
Format                                   : Matroska
Format version                           : Version 4 / Version 2
File size                                : 1,45 Гбайт
Duration                                 : 2 ч. 26 м.
Overall bit rate                         : 1417 Кбит/сек
Encoded date                             : UTC 2017-10-11 16:53:29
Writing application                      : mkvmerge v15.0.0 ('Duel with the Devil') 64-bit
Writing library                          : libebml v1.3.5 + libmatroska v1.4.5

Видео
ID                                       : 1
Format                                   : AVC
Format/Info                              : Advanced Video Codec
Format profile                           : High@L4.1
Format settings, CABAC                   : Да
Format settings, RefFrames               : 16 кадров
Codec ID                                 : V_MPEG4/ISO/AVC
Duration                                 : 2 ч. 26 м.
Bit rate                                 : 1327 Кбит/сек
Width                                    : 768 пикселей
Height                                   : 320 пикселей
Display aspect ratio                     : 2,40:1
Frame rate mode                          : Постоянный
Frame rate                               : 23,976 (24000/1001) кадра/сек
Color space                              : YUV
Chroma subsampling                       : 4:2:0
Bit depth                                : 8 бит
Scan type                                : Прогрессивная
Bits/(Pixel*Frame)                       : 0.225
Stream size                              : 1,35 Гбайт (93%)
Writing library                          : x264 core 152 r2851kMod ba24899
Encoding settings                        : cabac=1 / ref=16 / deblock=1:-3:-3 / analyse=0x3:0x133 / me=umh / subme=11 / psy=1 / fade_compensate=0.00 / psy_rd=1.00:0.07 / mixed_ref=1 / me_range=32 / chroma_me=1 / trellis=2 / 8x8dct=1 / cqm=0 / deadzone=21,11 / fast_pskip=0 / chroma_qp_offset=-3 / threads=10 / lookahead_threads=2 / sliced_threads=0 / nr=0 / decimate=0 / interlaced=0 / bluray_compat=0 / constrained_intra=0 / bframes=14 / b_pyramid=2 / b_adapt=2 / b_bias=0 / direct=3 / weightb=1 / open_gop=0 / weightp=2 / keyint=240 / keyint_min=23 / scenecut=40 / intra_refresh=0 / rc_lookahead=60 / rc=2pass / mbtree=0 / bitrate=1327 / ratetol=1.0 / qcomp=0.60 / qpmin=0 / qpmax=69 / qpstep=4 / cplxblur=20.0 / qblur=0.5 / vbv_maxrate=50000 / vbv_bufsize=62500 / nal_hrd=none / filler=0 / ip_ratio=1.40 / pb_ratio=1.30 / aq=3:0.75
Default                                  : Да
Forced                                   : Нет

Аудио
ID                                       : 2
Format                                   : AAC
Format/Info                              : Advanced Audio Codec
Format profile                           : LC
Codec ID                                 : A_AAC
Duration                                 : 2 ч. 26 м.
Bit rate                                 : 96,0 Кбит/сек
Channel(s)                               : 2 канала
Channel positions                        : Front: L R
Sampling rate                            : 48,0 КГц
Frame rate                               : 46,875 кадров/сек (1024 SPF)
Compression mode                         : С потерями
Delay relative to video                  : 9 мс.
Stream size                              : 100 Мбайт (7%)
Language                                 : Russian
Default                                  : Да
Forced                                   : Нет

Текст #1
ID                                       : 3
Format                                   : UTF-8
Codec ID                                 : S_TEXT/UTF8
Codec ID/Info                            : UTF-8 Plain Text
Duration                                 : 2 ч. 13 м.
Bit rate                                 : 10 бит/сек
Count of elements                        : 177
Stream size                              : 10,4 Кбайт (0%)
Title                                    : Forced
Language                                 : Russian
Default                                  : Да
Forced                                   : Да

Текст #2
ID                                       : 4
Format                                   : UTF-8
Codec ID                                 : S_TEXT/UTF8
Codec ID/Info                            : UTF-8 Plain Text
Duration                                 : 2 ч. 16 м.
Bit rate                                 : 84 бит/сек
Count of elements                        : 1501
Stream size                              : 84,2 Кбайт (0%)
Language                                 : Russian
Default                                  : Нет
Forced                                   : Нет

Текст #3
ID                                       : 5
Format                                   : UTF-8
Codec ID                                 : S_TEXT/UTF8
Codec ID/Info                            : UTF-8 Plain Text
Duration                                 : 2 ч. 10 м.
Bit rate                                 : 2 бит/сек
Count of elements                        : 64
Stream size                              : 2,48 Кбайт (0%)
Title                                    : Forced
Language                                 : English
Default                                  : Нет
Forced                                   : Нет

Текст #4
ID                                       : 6
Format                                   : UTF-8
Codec ID                                 : S_TEXT/UTF8
Codec ID/Info                            : UTF-8 Plain Text
Duration                                 : 2 ч. 15 м.
Bit rate                                 : 51 бит/сек
Count of elements                        : 1378
Stream size                              : 51,2 Кбайт (0%)
Language                                 : English
Default                                  : Нет
Forced                                   : Нет

Меню
00:00:00.000                             : en:Chapter 1
00:09:30.861                             : en:Chapter 2
00:19:08.355                             : en:Chapter 3
00:27:16.259                             : en:Chapter 4
00:34:22.810                             : en:Chapter 5
00:46:14.605                             : en:Chapter 6
00:55:16.855                             : en:Chapter 7
01:04:36.205                             : en:Chapter 8
01:14:51.903                             : en:Chapter 9
01:22:50.965                             : en:Chapter 10
01:32:53.692                             : en:Chapter 11
01:44:11.661                             : en:Chapter 12
01:55:16.826                             : en:Chapter 13
02:05:37.738                             : en:Chapter 14
02:10:38.580                             : en:Chapter 15
02:15:06.431                             : en:Chapter 16
     


Привет, гость
Информация

Торрент трекер ExKinoRay.TV

Здесь вы можете скачать через торрент новые фильмы, скачать новое кино, сериалы, игры, музыку, софт и многое другое. Большая скорость скачивания на мультитрекерных раздачах. Всё абсолютно бесплатно.