Предместье | The 'Burbs | 1989 | HDRip (AVC) | DVO - Bathory Одобрено администрацией

Участники
  • Раздают3
  • Качают0
  • Просмотров190
  • Скачали1
  • Комментариев0
  • Список файлов1
Залил раздачу
Поблагодарить
Характеристики
Вес745.67 MB (781,888,160)
Залит2017-10-20 00:16:05 Обновлено2017-10-20 00:26:17
Сетевая Нет
  http://i94.fastpic.ru/big/2017/0710/6a/00efe7c80d1a2111200432d0312c716a.gif
Чтобы скачать, необходимо авторизоваться или зарегистрироваться.
Статус: Одобрено администрацией
Хотите видеть детали Раздачи пройдите авторизацию или регистрацию!

Спасибо за понимание...
Код
1
2
3
4
5
6
7
8
9
10
11
12
13
14
15
16
17
18
19
20
21
22
23
24
25
26
27
28
29
30
31
32
33
34
35
36
37
38
39
40
41
42
43
44
45
46
47
48
49
50
51
52
53
54
55
56
57
58
Общее
Unique ID                                : 215234660322451351144798402275393435989 (0xA1ECB00FA1682654B54A06BD85507955)
Complete name                            : K:\The.Burbs.1989.HDRip.MegaPeer.mkv
Format                                   : Matroska
Format version                           : Version 2
File size                                : 746 Мбайт
Duration                                 : 1 ч. 41 м.
Overall bit rate                         : 1028 Кбит/сек
Encoded date                             : UTC 2017-10-19 19:48:50
Writing application                      : mkvmerge v17.0.0 ('Be Ur Friend') 64-bit
Writing library                          : libebml v1.3.5 + libmatroska v1.4.8

Видео
ID                                       : 1
Format                                   : AVC
Format/Info                              : Advanced Video Codec
Format profile                           : High@L4.1
Format settings, CABAC                   : Да
Format settings, RefFrames               : 14 кадров
Codec ID                                 : V_MPEG4/ISO/AVC
Duration                                 : 1 ч. 41 м.
Bit rate                                 : 954 Кбит/сек
Width                                    : 744 пикселя
Height                                   : 400 пикселей
Display aspect ratio                     : 1,85:1
Frame rate mode                          : Постоянный
Frame rate                               : 23,976 (24000/1001) кадра/сек
Color space                              : YUV
Chroma subsampling                       : 4:2:0
Bit depth                                : 8 бит
Scan type                                : Прогрессивная
Bits/(Pixel*Frame)                       : 0.134
Stream size                              : 692 Мбайт (93%)
Writing library                          : x264 core 152 r2851kMod ba24899
Encoding settings                        : cabac=1 / ref=14 / deblock=1:-2:-2 / analyse=0x3:0x133 / me=umh / subme=11 / psy=1 / fade_compensate=0.00 / psy_rd=1.00:0.09 / mixed_ref=1 / me_range=32 / chroma_me=1 / trellis=2 / 8x8dct=1 / cqm=0 / deadzone=21,11 / fast_pskip=0 / chroma_qp_offset=-3 / threads=12 / lookahead_threads=3 / sliced_threads=0 / nr=0 / decimate=0 / interlaced=0 / bluray_compat=0 / constrained_intra=0 / bframes=12 / b_pyramid=2 / b_adapt=2 / b_bias=0 / direct=3 / weightb=1 / open_gop=0 / weightp=2 / keyint=240 / keyint_min=23 / scenecut=40 / intra_refresh=0 / rc_lookahead=60 / rc=2pass / mbtree=1 / bitrate=954 / ratetol=1.0 / qcomp=0.60 / qpmin=0 / qpmax=69 / qpstep=4 / cplxblur=20.0 / qblur=0.5 / vbv_maxrate=50000 / vbv_bufsize=62500 / nal_hrd=none / filler=0 / ip_ratio=1.40 / aq=3:0.95
Default                                  : Да
Forced                                   : Нет

Аудио
ID                                       : 2
Format                                   : AAC
Format/Info                              : Advanced Audio Codec
Format profile                           : LC
Codec ID                                 : A_AAC
Duration                                 : 1 ч. 41 м.
Bit rate                                 : 72,0 Кбит/сек
Channel(s)                               : 2 канала
Channel positions                        : Front: L R
Sampling rate                            : 48,0 КГц
Frame rate                               : 46,875 кадров/сек (1024 SPF)
Compression mode                         : С потерями
Delay relative to video                  : 9 мс.
Stream size                              : 52,2 Мбайт (7%)
Language                                 : Russian
Default                                  : Да
Forced                                   : Нет

     


Привет, гость
- Запомнить
Регистрация
Информация

Торрент трекер ExKinoRay.TV

Здесь вы можете скачать новые фильмы, сериалы, игры, музыку, софт и многое другое. Большая скорость скачивания на мультитрекерных раздачах. Всё абсолютно бесплатно.