Pet Shop Boys - Electric Tour | 2014 | WEBRip - Лумина Одобрено администрацией

Участники
  • Раздают1
  • Качают1
  • Просмотров264
  • Скачали1
  • Комментариев0
  • Список файлов1
Залил раздачу
Поблагодарить
Никто
Характеристики
Вес1.37 GB (1,468,473,344)
Залит2017-12-09 19:37:11 Обновлено2017-12-09 19:37:42
Сетевая Нет
  http://s018.radikal.ru/i507/1605/a4/ac035f69f65b.gif
Чтобы скачать, необходимо авторизоваться или зарегистрироваться.
Статус: Одобрено администрацией
Хотите видеть детали Раздачи пройдите авторизацию или регистрацию!

Спасибо за понимание...
General
Complete name               : C:\Users\User\Desktop\История Молдовы\Pet.Shop.Boys-Electric.Tour.2014.XviD.WEBRip-Лумина.avi
Format                      : AVI
Format/Info                 : Audio Video Interleave
File size                   : 1.37 GiB
Duration                    : 1 h 41 min
Overall bit rate            : 1 929 kb/s
Writing application         : VirtualDubMod 1.5.10.3 | www.virtualdub-fr.org || (build 2550/release)
Writing library             : VirtualDubMod build 2550/release

Video
ID                          : 0
Format                      : MPEG-4 Visual
Format profile              : Advanced Simple@L5
Format settings             : BVOP2 / Custom Matrix
Format settings, BVOP       : 2
Format settings, QPel       : No
Format settings, GMC        : No warppoints
Format settings, Matrix     : Custom
Codec ID                    : XVID
Codec ID/Hint               : XviD
Duration                    : 1 h 41 min
Bit rate                    : 1 792 kb/s
Width                       : 704 pixels
Height                      : 384 pixels
Display aspect ratio        : 1.85:1
Frame rate                  : 23.976 (24000/1001) FPS
Original frame rate         : 23.976 (23976/1000) FPS
Color space                 : YUV
Chroma subsampling          : 4:2:0
Bit depth                   : 8 bits
Scan type                   : Progressive
Compression mode            : Lossy
Bits/(Pixel*Frame)          : 0.276
Stream size                 : 1.27 GiB (93%)
Writing library             : XviD 65

Audio
ID                          : 1
Format                      : MPEG Audio
Format version              : Version 1
Format profile              : Layer 3
Format settings             : Joint stereo / MS Stereo
Mode                        : Joint stereo
Mode extension              : MS Stereo
Codec ID                    : 55
Codec ID/Hint               : MP3
Duration                    : 1 h 41 min
Bit rate mode               : Constant
Bit rate                    : 128 kb/s
Channel(s)                  : 2 channels
Sampling rate               : 44.1 kHz
Compression mode            : Lossy
Stream size                 : 92.9 MiB (7%)
Alignment                   : Split accross interleaves
Interleave, duration        : 42  ms (1.00 video frame)
Interleave, preload duratio : 500  ms
Writing library             : LAME3.99r
Encoding settings           : -m j -V 4 -q 2 -lowpass 17 -b 128

http://s019.radikal.ru/i618/1712/64/b5080ec74302t.jpg http://s019.radikal.ru/i626/1712/de/6b33262f913et.jpg
http://s02.radikal.ru/i175/1712/0d/f669773f9b3ct.jpg http://s41.radikal.ru/i094/1712/9c/70bfed6f1652t.jpg
http://s016.radikal.ru/i337/1712/fc/25920b634f14t.jpg http://s018.radikal.ru/i524/1712/22/d5e123b68634t.jpg
Intro:
01. Gui Boratto - Arquipélago
02. Rex The Dog 'Prototype'

03. Axis
04. One More Chance / Face Like That
05. Opportunities (Let's Make Lots of Money)
06. Memory of the Future
07. Fugitive
08. Integral (Sample of "The Rite of Spring"
09. I Wouldn't Normally Do This Kind of Thing
10. Suburbia
11. I'm Not Scared
12. Invisible
13. Last to Die (Bruce Springsteen cover)
14. Somewhere (Leonard Bernstein cover)
15. Leaving
16. Thursday
17. Love Etc.
18. I Get Excited (You Get Excited Too)
19. Rent
20. Miracles
21. It's a Sin
22. Domino Dancing
23. Go West (Village People cover)
24. Always on My Mind (Brenda Lee cover)

Encore:
25. West End Girls
26. Vocal


Привет, гость
- Запомнить
Регистрация
Информация

Торрент трекер ExKinoRay.TV

Здесь вы можете скачать новые фильмы, сериалы, игры, музыку, софт и многое другое. Большая скорость скачивания на мультитрекерных раздачах. Всё абсолютно бесплатно.