Sting - Live At The Olympia Paris | 2017 | BDRip -
  • 10
  • 2
  • 77
  • 0
  • 0
  • 2
2.04 GB (2,194,888,704)
2017-12-09 22:15:56 2017-12-09 22:16:27
  http://s018.radikal.ru/i507/1605/a4/ac035f69f65b.gif
, .
:
!

...
General
Complete name : C:\Users\User\Desktop\\Sting-Live.At.The.Olympia .Paris.2017.XviD.BDRip-\Sting-Live.At.The.Olympia.Paris.2017.XviD.BDRip-.avi
Format: AVI
Format/Info : Audio Video Interleave
File size : 1.45 GiB
Duration: 1 h 42 min
Overall bit rate: 2 037 kb/s
Writing application : VirtualDubMod 1.5.10.3 | www.virtualdub-fr.org || (build 2550/release)
Writing library : VirtualDubMod build 2550/release

Video
ID: 0
Format: MPEG-4 Visual
Format profile: Advanced Simple@L5
Format settings : BVOP2 / Custom Matrix
Format settings, BVOP : 2
Format settings, QPel : No
Format settings, GMC: No warppoints
Format settings, Matrix : Custom
Codec ID: XVID
Codec ID/Hint : XviD
Duration: 1 h 42 min
Bit rate: 1 644 kb/s
Width : 704 pixels
Height: 400 pixels
Display aspect ratio: 16:9
Frame rate: 23.976 (24000/1001) FPS
Color space : YUV
Chroma subsampling: 4:2:0
Bit depth : 8 bits
Scan type : Progressive
Compression mode: Lossy
Bits/(Pixel*Frame): 0.243
Stream size : 1.17 GiB (81%)
Writing library : XviD 65

Audio
ID: 1
Format: AC-3
Format/Info : Audio Coding 3
Format settings, Endianness : Big
Codec ID: 2000
Duration: 1 h 42 min
Bit rate mode : Constant
Bit rate: 384 kb/s
Channel(s): 6 channels
Channel positions : Front: L C R, Side: L R, LFE
Sampling rate : 48.0 kHz
Frame rate: 31.250 FPS (1536 SPF)
Bit depth : 16 bits
Compression mode: Lossy
Stream size : 280 MiB (19%)
Alignment : Split accross interleaves
Interleave, duration: 42ms (1.00 video frame)
Interleave, preload duratio : 500ms
Service kind: Complete Main

http://s015.radikal.ru/i333/1712/c9/8cc66c98e822t.jpg http://s016.radikal.ru/i334/1712/5f/828ad5490fc1t.jpg
http://s42.radikal.ru/i096/1712/6c/4a26335bb615t.jpg http://i013.radikal.ru/1712/2f/1d602cce593bt.jpg
http://s014.radikal.ru/i326/1712/df/b2c844fee680t.jpg http://s018.radikal.ru/i502/1712/9e/59a83a583f0ct.jpg
01. Synchronicity II
02. Spirits In The Material World
03. Englishman in New York
04. I Can't Stop Thinking About You
05. One Fine Day
06. She's Too Good For Me
07. I Hung My Head
08. Fields Of Gold
09. Petrol Head
10. Down, Down, Down
11. Shape Of My Heart
12. Pretty Young Soldier
13. Message In A Bottle
14. Ashes To Ashes (Sting & Joe Sumner)
15. 50,000
16. Walking On The Moon
17. So Lonely
18. Desert Rose
19. Roxanne
20. Next To You
21. Every Breath You Take
22. Fragile

Bonus:
1. Heading South On The Great North Road (Sting & Joe Sumner)
2. Looking For Me, Looking For You (Joe Sumner)
3. Don't Change The Love (Joe Sumner)
4. Jellybean (Joe Sumner)
5. Maria (The Last Bandoleros)
6. Riverman (The Last Bandoleros)
7. Take Me To It (The Last Bandoleros)
8. I Don't Want To Know (The Last Bandoleros)
9. Where Do You Go? (The Last Bandoleros)


,

ExKinoRay.TV

, , , , , . . .