Black Sabbath - The End: Live In Birmingham | 2017 | BDRip -
  • 5
  • 1
  • 77
  • 0
  • 0
  • 2
1.88 GB (2,018,209,792)
2017-12-22 23:16:31 2017-12-22 23:17:06
  http://s018.radikal.ru/i507/1605/a4/ac035f69f65b.gif
, .
:
!

...
General
Complete name : C:\Users\User\Desktop\ \Black.Sabbath-The.End.Live.In.Birmingham.2017.XviD.BDRip-\Black.Sabbath-The.End.Live.In.Birmingham.2017.XviD.BDRip-.avi
Format: AVI
Format/Info : Audio Video Interleave
File size : 1.45 GiB
Duration: 1 h 48 min
Overall bit rate: 1 921 kb/s
Writing application : VirtualDubMod 1.5.10.3 | www.virtualdub-fr.org || (build 2550/release)
Writing library : VirtualDubMod build 2550/release

Video
ID: 0
Format: MPEG-4 Visual
Format profile: Advanced Simple@L5
Format settings : BVOP2 / Custom Matrix
Format settings, BVOP : 2
Format settings, QPel : No
Format settings, GMC: No warppoints
Format settings, Matrix : Custom
Codec ID: XVID
Codec ID/Hint : XviD
Duration: 1 h 48 min
Bit rate: 1 528 kb/s
Width : 704 pixels
Height: 288 pixels
Display aspect ratio: 2.40:1
Frame rate: 23.976 (24000/1001) FPS
Original frame rate : 23.976 (23976/1000) FPS
Color space : YUV
Chroma subsampling: 4:2:0
Bit depth : 8 bits
Scan type : Progressive
Compression mode: Lossy
Bits/(Pixel*Frame): 0.314
Stream size : 1.15 GiB (80%)
Writing library : XviD 65

Audio
ID: 1
Format: AC-3
Format/Info : Audio Coding 3
Format settings, Endianness : Big
Codec ID: 2000
Duration: 1 h 48 min
Bit rate mode : Constant
Bit rate: 384 kb/s
Channel(s): 6 channels
Channel positions : Front: L C R, Side: L R, LFE
Sampling rate : 48.0 kHz
Frame rate: 31.250 FPS (1536 SPF)
Bit depth : 16 bits
Compression mode: Lossy
Stream size : 297 MiB (20%)
Alignment : Split accross interleaves
Interleave, duration: 42ms (1.00 video frame)
Interleave, preload duratio : 500ms
Service kind: Complete Main

http://s019.radikal.ru/i620/1712/cd/5dda57674460t.jpg http://s019.radikal.ru/i605/1712/0e/44f747516bebt.jpg
http://s016.radikal.ru/i335/1712/8e/73e362fcb84ct.jpg http://s018.radikal.ru/i526/1712/f8/837fb5106b00t.jpg
http://i056.radikal.ru/1712/63/0870e0ba9d24t.jpg http://s018.radikal.ru/i528/1712/77/a74f52bac169t.jpg
Live From The Genting Arena, Birmingham, 4 February 2017

01. Black Sabbath
02. Fairies Wear Boots
03. Medley: Under The Sun / Every Day Comes And Goes
04. After Forever
05. Into The Void
06. Snowblind
07. Band Introductions
08. War Pigs
09. Behind The Wall Of Sleep
10. Medley: Bassically / N.I.B.
11. Hand Of Doom
12. Medley: Supernaut / Sabbath Bloody Sabbath / Megalomania
13. Medley: Rat Salad / Drum Solo
14. Iron Man
15. Dirty Women
16. Children Of The Grave
17. Crowd Cheering
18. Paranoid
19. Credits

Live From Angelic Studios, United Kingdom, 2017

1. The Wizard
2. Wicked World
3. Sweet Leaf
4. Tomorrow's Dream
5. Changes


,

ExKinoRay.TV

, , , , , . . .