Yello - Live in Berlin | 2017 | BDRip -
  • 8
  • 0
  • 69
  • 0
  • 0
  • 1
1.45 GB (1,559,064,576)
2017-12-24 14:54:28 2017-12-24 14:55:08
  http://s018.radikal.ru/i507/1605/a4/ac035f69f65b.gif
, .
:
!

...
General
Complete name : C:\Users\User\Desktop\ELO\Yello-Live.in.Berlin.2017.XviD.BDRip-.avi
Format: AVI
Format/Info : Audio Video Interleave
File size : 1.45 GiB
Duration: 1 h 38 min
Overall bit rate: 2 120 kb/s
Writing application : VirtualDubMod 1.5.10.3 | www.virtualdub-fr.org || (build 2550/release)
Writing library : VirtualDubMod build 2550/release

Video
ID: 0
Format: MPEG-4 Visual
Format profile: Advanced Simple@L5
Format settings : BVOP2 / Custom Matrix
Format settings, BVOP : 2
Format settings, QPel : No
Format settings, GMC: No warppoints
Format settings, Matrix : Custom
Codec ID: XVID
Codec ID/Hint : XviD
Duration: 1 h 38 min
Bit rate: 1 727 kb/s
Width : 704 pixels
Height: 400 pixels
Display aspect ratio: 16:9
Frame rate: 23.976 (24000/1001) FPS
Original frame rate : 23.976 (23976/1000) FPS
Color space : YUV
Chroma subsampling: 4:2:0
Bit depth : 8 bits
Scan type : Progressive
Compression mode: Lossy
Bits/(Pixel*Frame): 0.256
Stream size : 1.18 GiB (81%)
Writing library : XviD 65

Audio
ID: 1
Format: AC-3
Format/Info : Audio Coding 3
Format settings, Endianness : Big
Codec ID: 2000
Duration: 1 h 38 min
Bit rate mode : Constant
Bit rate: 384 kb/s
Channel(s): 6 channels
Channel positions : Front: L C R, Side: L R, LFE
Sampling rate : 48.0 kHz
Frame rate: 31.250 FPS (1536 SPF)
Bit depth : 16 bits
Compression mode: Lossy
Stream size : 269 MiB (18%)
Alignment : Split accross interleaves
Interleave, duration: 42ms (1.00 video frame)
Interleave, preload duratio : 500ms
Service kind: Complete Main

https://a.radikal.ru/a14/1712/7b/cb439116c283t.jpg https://b.radikal.ru/b26/1712/0c/095bfbce1285t.jpg
https://b.radikal.ru/b06/1712/3b/5f6e74c0c47at.jpg https://b.radikal.ru/b38/1712/ef/4e8b070ef6c0t.jpg
https://b.radikal.ru/b34/1712/e8/7cb0bc205e93t.jpg https://d.radikal.ru/d02/1712/0d/7b16109b1cb5t.jpg
01. Magma
02. Do It
03. The Evening's Young
04. Limbo
05. Bostich
06. Electrified II (feat. Malia)
07. Cold Flame (feat. Malia)
08. 30'000 Days
09. The Time Tunnel
10. Kiss the Cloud (feat. Fifi Rong)
11. Lost in Motion (feat. Fifi Rong)
12. Tied Up
13. Liquid Lies
14. Starlight Scene
15. Tool of Love
16. Oh Yeah
17. Blue Biscuit
18. Si Senor the Hairy Grill
19. The Yellofier Song
20. The Race


,

ExKinoRay.TV

, , , , , . . .