Jeff Lynne's - ELO - Wembley Or Bust | 2017 | BDRip -
  • 4
  • 0
  • 85
  • 0
  • 0
  • 1
1.45 GB (1,559,347,200)
2017-12-24 14:58:06 2017-12-24 14:58:41
  http://s018.radikal.ru/i507/1605/a4/ac035f69f65b.gif
, .
:
!

...
General
Complete name : C:\Users\User\Desktop\ELO\Jeff.Lynnes-ELO-Wembley.Or.Bust.2017.XviD.BDRip-.avi
Format: AVI
Format/Info : Audio Video Interleave
File size : 1.45 GiB
Duration: 1 h 58 min
Overall bit rate: 1 757 kb/s
Writing application : VirtualDubMod 1.5.10.3 | www.virtualdub-fr.org || (build 2550/release)
Writing library : VirtualDubMod build 2550/release

Video
ID: 0
Format: MPEG-4 Visual
Format profile: Advanced Simple@L5
Format settings : BVOP2 / Custom Matrix
Format settings, BVOP : 2
Format settings, QPel : No
Format settings, GMC: No warppoints
Format settings, Matrix : Custom
Codec ID: XVID
Codec ID/Hint : XviD
Duration: 1 h 58 min
Bit rate: 1 491 kb/s
Width : 704 pixels
Height: 288 pixels
Display aspect ratio: 2.40:1
Frame rate: 23.976 (24000/1001) FPS
Original frame rate : 23.976 (23976/1000) FPS
Color space : YUV
Chroma subsampling: 4:2:0
Bit depth : 8 bits
Scan type : Progressive
Compression mode: Lossy
Bits/(Pixel*Frame): 0.307
Stream size : 1.23 GiB (85%)
Writing library : XviD 65

Audio
ID: 1
Format: AC-3
Format/Info : Audio Coding 3
Format settings, Endianness : Big
Codec ID: 2000
Duration: 1 h 58 min
Bit rate mode : Constant
Bit rate: 256 kb/s
Channel(s): 2 channels
Channel positions : Front: L R
Sampling rate : 48.0 kHz
Frame rate: 31.250 FPS (1536 SPF)
Bit depth : 16 bits
Compression mode: Lossy
Stream size : 217 MiB (15%)
Alignment : Split accross interleaves
Interleave, duration: 42ms (1.00 video frame)
Interleave, preload duratio : 500ms
Service kind: Complete Main

https://a.radikal.ru/a19/1712/63/1dc098fb935et.jpg https://d.radikal.ru/d41/1712/be/6db194915194t.jpg
https://d.radikal.ru/d19/1712/d7/97a1e9c6a318t.jpg https://b.radikal.ru/b23/1712/79/f9166a1d1699t.jpg
https://a.radikal.ru/a12/1712/7e/de1bbeaa05bft.jpg https://a.radikal.ru/a18/1712/d3/b79d0cbf4e98t.jpg
Recorded at Wembley Stadium, London 24th June 2017:

01. Standin' in the Rain
02. Evil Woman
03. All Over the World
04. Showdown
05. Livin' Thing
06. Scene 1
07. Do Ya
08. When I Was a Boy
09. Handle with Care
10. Scene 2
11. Last Train to London
12. Xanadu
13. Rockaria!
14. Band Introductions
15. Can't Get It Out of My Head
16. 10538 Overture
17. Scene 3
18. Twilight
19. Ma-Ma-Ma Belle
20. Shine a Little Love
21. Wild West Hero
22. Scene 4
23. Sweet Talkin' Woman
24. Telephone Line
25. Turn to Stone
26. Don't Bring Me Down
27. Mr. Blue Sky
28. Scene 5
29. Roll Over Beethoven
30. Credits


,

ExKinoRay.TV

, , , , , . . .