Tom Jones - Live on Soundstage | 2017 | BDRip -
  • 1
  • 0
  • 88
  • 0
  • 0
  • 1
1.45 GB (1,557,577,728)
2017-12-24 20:21:18 2017-12-24 20:21:45
  http://s018.radikal.ru/i507/1605/a4/ac035f69f65b.gif
, .
:
!

...
General
Complete name : C:\Users\User\Desktop\ELO\Tom.Jones-Live.on.Soundstage.2017.XviD.BDRip-.avi
Format: AVI
Format/Info : Audio Video Interleave
File size : 1.45 GiB
Duration: 1 h 27 min
Overall bit rate: 2 376 kb/s
Writing application : VirtualDubMod 1.5.10.3 | www.virtualdub-fr.org || (build 2550/release)
Writing library : VirtualDubMod build 2550/release

Video
ID: 0
Format: MPEG-4 Visual
Format profile: Advanced Simple@L5
Format settings : BVOP2 / Custom Matrix
Format settings, BVOP : 2
Format settings, QPel : No
Format settings, GMC: No warppoints
Format settings, Matrix : Custom
Codec ID: XVID
Codec ID/Hint : XviD
Duration: 1 h 27 min
Bit rate: 1 982 kb/s
Width : 704 pixels
Height: 400 pixels
Display aspect ratio: 16:9
Frame rate: 23.976 (24000/1001) FPS
Color space : YUV
Chroma subsampling: 4:2:0
Bit depth : 8 bits
Scan type : Progressive
Compression mode: Lossy
Bits/(Pixel*Frame): 0.294
Stream size : 1.21 GiB (83%)
Writing library : XviD 65

Audio
ID: 1
Format: AC-3
Format/Info : Audio Coding 3
Format settings, Endianness : Big
Codec ID: 2000
Duration: 1 h 27 min
Bit rate mode : Constant
Bit rate: 384 kb/s
Channel(s): 6 channels
Channel positions : Front: L C R, Side: L R, LFE
Sampling rate : 48.0 kHz
Frame rate: 31.250 FPS (1536 SPF)
Bit depth : 16 bits
Compression mode: Lossy
Stream size : 240 MiB (16%)
Alignment : Split accross interleaves
Interleave, duration: 42ms (1.00 video frame)
Interleave, preload duratio : 500ms
Service kind: Complete Main

https://d.radikal.ru/d15/1712/da/c065a27e3a24t.jpg https://c.radikal.ru/c43/1712/ba/698ac09af250t.jpg
https://a.radikal.ru/a08/1712/11/953819cc83d7t.jpg https://d.radikal.ru/d33/1712/c6/fbd6b5e03624t.jpg
https://b.radikal.ru/b17/1712/28/ec9976444a43t.jpg https://a.radikal.ru/a27/1712/e9/9b68db02748ct.jpg
01. Tower of Song
02. God's Gonna Cut You Down
03. Strange Things Happening Every Day
04. Delilah
05. Take My Love (I Want to Give It All to You)
06. Opportunity to Cry (with Alison Krauss)
07. Raise a Ruckus (with Alison Krauss)
08. Elvis Presley Blues
09. Soul of a Man
10. If I Give My Soul
11. Burning Hell
12. Don't Knock
13. Didn't It Rain (with Alison Krauss)
14. Green, Green Grass of Home
15. Till My Back Ain't Got No Bone
16. Kiss
17. I Wish You Would
18. Thunderball
19. It's Not Unusual
20. What Good Am I?


,

ExKinoRay.TV

, , , , , . . .