Prince And The Revolution - Purple Rain (Live At The Carrier Dome 1985) | 2017 | DVDRip -
  • 0
  • 1
  • 38
  • 0
  • 0
  • 1
Z
1.99 GB (2,138,001,408)
2017-12-25 23:17:34 2017-12-25 23:19:38
  http://s018.radikal.ru/i507/1605/a4/ac035f69f65b.gif
, .
:
!

...
General
Complete name : C:\Users\User\Desktop\\Prince.And.The.Revolution-Purple.Rain.1985.Remaster.2017.XviD.DVDRip-.avi
Format: AVI
Format/Info : Audio Video Interleave
Format profile: OpenDML
File size : 1.99 GiB
Duration: 1 h 56 min
Overall bit rate: 2 446 kb/s
Writing application : VirtualDubMod 1.5.10.3 | www.virtualdub-fr.org || (build 2550/release)
Writing library : VirtualDubMod build 2550/release

Video
ID: 0
Format: MPEG-4 Visual
Format profile: Advanced Simple@L5
Format settings : BVOP2 / Custom Matrix
Format settings, BVOP : 2
Format settings, QPel : No
Format settings, GMC: No warppoints
Format settings, Matrix : Custom
Codec ID: XVID
Codec ID/Hint : XviD
Duration: 1 h 56 min
Bit rate: 2 178 kb/s
Width : 704 pixels
Height: 512 pixels
Display aspect ratio: 1.375
Frame rate: 23.976 (24000/1001) FPS
Original frame rate : 23.976 (23976/1000) FPS
Color space : YUV
Chroma subsampling: 4:2:0
Bit depth : 8 bits
Scan type : Progressive
Compression mode: Lossy
Bits/(Pixel*Frame): 0.252
Stream size : 1.77 GiB (89%)
Writing library : XviD 65

Audio
ID: 1
Format: AC-3
Format/Info : Audio Coding 3
Format settings, Endianness : Big
Codec ID: 2000
Duration: 1 h 56 min
Bit rate mode : Constant
Bit rate: 256 kb/s
Channel(s): 2 channels
Channel positions : Front: L R
Sampling rate : 48.0 kHz
Frame rate: 31.250 FPS (1536 SPF)
Bit depth : 16 bits
Compression mode: Lossy
Stream size : 213 MiB (10%)
Alignment : Split accross interleaves
Interleave, duration: 42ms (1.00 video frame)
Interleave, preload duratio : 500ms
Service kind: Complete Main

https://a.radikal.ru/a41/1712/0f/94fe6251bd78t.jpg https://b.radikal.ru/b40/1712/f4/98f73b5c955at.jpg
https://b.radikal.ru/b12/1712/26/67a800a6519bt.jpg https://b.radikal.ru/b18/1712/8e/a136d1c9bc70t.jpg
https://a.radikal.ru/a13/1712/ae/ead9899e6367t.jpg https://b.radikal.ru/b12/1712/d8/52d91dd9271bt.jpg
01. Lets Go Crazy
02. Delirious
03. 1999
04. Little Red Corvette
05. Take Me With U
06. Do Me, Baby
07. Irresistible Bitch
08. Possessed
09. How Come U Dont Call Me Anymore?
10. Lets Pretend Were Married
11. International Lover
12. God
13. Computer Blue
14. Darling Nikki
15. The Beautiful Ones
16. When Doves Cry
17. I Would Die 4 U
18. Baby Im A Star
19. Purple Rain


,

ExKinoRay.TV

, , , , , . . .