| The Ritchie Blackmore Story | 2015 | BDRip - | MVO
  • 17
  • 0
  • 25
  • 0
  • 0
  • 1
1.37 GB (1,468,708,864)
2017-12-29 22:09:39 2017-12-29 22:22:34
  http://s018.radikal.ru/i507/1605/a4/ac035f69f65b.gif
, .
:
!

...
General
Complete name : C:\Users\User\Desktop\\The.Ritchie.Blackmore.Story.2015.XviD.BDRip-.avi
Format: AVI
Format/Info : Audio Video Interleave
File size : 1.37 GiB
Duration: 1 h 30 min
Overall bit rate: 2 161 kb/s
Writing application : VirtualDubMod 1.5.10.3 | www.virtualdub-fr.org || (build 2550/release)
Writing library : VirtualDubMod build 2550/release

Video
ID: 0
Format: MPEG-4 Visual
Format profile: Advanced Simple@L5
Format settings : BVOP2 / Custom Matrix
Format settings, BVOP : 2
Format settings, QPel : No
Format settings, GMC: No warppoints
Format settings, Matrix : Custom
Codec ID: XVID
Codec ID/Hint : XviD
Duration: 1 h 30 min
Bit rate: 1 960 kb/s
Width : 704 pixels
Height: 400 pixels
Display aspect ratio: 16:9
Frame rate: 23.976 (24000/1001) FPS
Original frame rate : 23.976 (23976/1000) FPS
Color space : YUV
Chroma subsampling: 4:2:0
Bit depth : 8 bits
Scan type : Progressive
Compression mode: Lossy
Bits/(Pixel*Frame): 0.290
Stream size : 1.24 GiB (91%)
Writing library : XviD 65

Audio
ID: 1
Format: AC-3
Format/Info : Audio Coding 3
Format settings, Endianness : Big
Codec ID: 2000
Duration: 1 h 30 min
Bit rate mode : Constant
Bit rate: 192 kb/s
Channel(s): 2 channels
Channel positions : Front: L R
Sampling rate : 48.0 kHz
Frame rate: 31.250 FPS (1536 SPF)
Bit depth : 16 bits
Compression mode: Lossy
Stream size : 124 MiB (9%)
Alignment : Split accross interleaves
Interleave, duration: 42ms (1.00 video frame)
Interleave, preload duratio : 500ms
Service kind: Complete Main

https://c.radikal.ru/c32/1712/9d/6f5f3365c7bdt.jpg https://b.radikal.ru/b42/1712/a9/ad8a3ae291c0t.jpg
https://a.radikal.ru/a40/1712/c7/6f478157b2ebt.jpg https://d.radikal.ru/d34/1712/2a/18df5b38cb42t.jpg
https://a.radikal.ru/a42/1712/85/6cdb983ed8bet.jpg https://b.radikal.ru/b33/1712/f8/c76af7e22700t.jpg
01. The Early Years
02. The Formation Of Deep Purple
03. Deep Purple In Rock
04. Fireball
05. Machine Head
06. The Deprature Of Gillan And Glover
07. California Jam
08. Fire On Stage
09. The Formation Of Blackmore's Rainbow
10. The Deprature Of Dio And Powell
11. Monsters Of Rock At Donington
12. Deep Purple Mk 2 Back Together
13. Gillan Departs And Returns
14. Ritchie Leaves Purple For Good
15. Formation Of Blackmore's Night
16. Putting The Music First
17. Credits


,

ExKinoRay.TV

, , , , , . . .