- | Janis - Little Girl Blue / 2015 | HDTVRip - | MVO
  • 2
  • 1
  • 27
  • 0
  • 0
  • 1
1.37 GB (1,469,253,632)
2017-12-29 22:14:07 2017-12-29 22:14:30
  http://s018.radikal.ru/i507/1605/a4/ac035f69f65b.gif
, .
:
!

...
General
Complete name : C:\Users\User\Desktop\\Janis-Little.Girl.Blue.2015.XviD.HDTVRip-.avi
Format: AVI
Format/Info : Audio Video Interleave
File size : 1.37 GiB
Duration: 1 h 36 min
Overall bit rate: 2 033 kb/s
Writing application : VirtualDubMod 1.5.10.3 | www.virtualdub-fr.org || (build 2550/release)
Writing library : VirtualDubMod build 2550/release

Video
ID: 0
Format: MPEG-4 Visual
Format profile: Advanced Simple@L5
Format settings : BVOP1 / Custom Matrix
Format settings, BVOP : 1
Format settings, QPel : No
Format settings, GMC: No warppoints
Format settings, Matrix : Custom
Codec ID: XVID
Codec ID/Hint : XviD
Duration: 1 h 36 min
Bit rate: 1 831 kb/s
Width : 704 pixels
Height: 400 pixels
Display aspect ratio: 16:9
Frame rate: 25.000 FPS
Color space : YUV
Chroma subsampling: 4:2:0
Bit depth : 8 bits
Scan type : Progressive
Compression mode: Lossy
Bits/(Pixel*Frame): 0.260
Stream size : 1.23 GiB (90%)
Writing library : XviD 1.2.1 (UTC 2008-12-04)

Audio
ID: 1
Format: AC-3
Format/Info : Audio Coding 3
Format settings, Endianness : Big
Codec ID: 2000
Duration: 1 h 36 min
Bit rate mode : Constant
Bit rate: 192 kb/s
Channel(s): 2 channels
Channel positions : Front: L R
Sampling rate : 48.0 kHz
Frame rate: 31.250 FPS (1536 SPF)
Bit depth : 16 bits
Compression mode: Lossy
Stream size : 132 MiB (9%)
Alignment : Split accross interleaves
Interleave, duration: 40ms (1.00 video frame)
Interleave, preload duratio : 500ms
Service kind: Complete Main

https://b.radikal.ru/b28/1712/4d/c6a7f3b4b618t.jpg https://c.radikal.ru/c37/1712/8e/03fdc29ccf9bt.jpg
https://d.radikal.ru/d19/1712/cc/66999a176242t.jpg https://a.radikal.ru/a12/1712/d7/34632d74dce4t.jpg
https://d.radikal.ru/d09/1712/31/fc2efbf9a38bt.jpg https://c.radikal.ru/c43/1712/6d/11bc2f885270t.jpg
01. Janis: Little Girl Blue
02. The BLues
03. Big Brother
04. Monterey Pop
05. The Fame
06. Summer of Love
07. The New Band
08. Little Girl Lost
09. The Drugs
10. Clean
11. Me & Bobby McGee


,

ExKinoRay.TV

, , , , , . . .