Deep Purple - Infinite | 2017 | DVDRip - Лумина | L1 Одобрено администрацией
Участники
  • Раздают2
  • Качают0
  • Просмотров130
  • Скачали0
  • Комментариев0
  • Список файлов1
Залил раздачу
Поблагодарить
Характеристики
Вес1.37 GB (1,469,061,120)
Залит2017-12-29 23:25:54 Обновлено0000-00-00 00:00:00
Сетевая Нет
  http://s018.radikal.ru/i507/1605/a4/ac035f69f65b.gif
Для того что бы скачать торрент, Вам необходимо авторизоваться или зарегистрироваться в системе.
Статус: Одобрено администрацией
Хотите видеть детали Раздачи пройдите авторизацию или регистрацию!

Спасибо за понимание...
General
Complete name               : C:\Users\User\Desktop\u2\Deep.Purple-Infinite.2017.XviD.DVDRip-Лумина.avi
Format                      : AVI
Format/Info                 : Audio Video Interleave
File size                   : 1.37 GiB
Duration                    : 1 h 36 min
Overall bit rate            : 2 035 kb/s
Writing application         : VirtualDubMod 1.5.10.3 | www.virtualdub-fr.org || (build 2550/release)
Writing library             : VirtualDubMod build 2550/release

Video
ID                          : 0
Format                      : MPEG-4 Visual
Format profile              : Advanced Simple@L5
Format settings             : BVOP1 / Custom Matrix
Format settings, BVOP       : 1
Format settings, QPel       : No
Format settings, GMC        : No warppoints
Format settings, Matrix     : Custom
Codec ID                    : XVID
Codec ID/Hint               : XviD
Duration                    : 1 h 36 min
Bit rate                    : 1 834 kb/s
Width                       : 704 pixels
Height                      : 400 pixels
Display aspect ratio        : 16:9
Frame rate                  : 23.976 (24000/1001) FPS
Color space                 : YUV
Chroma subsampling          : 4:2:0
Bit depth                   : 8 bits
Scan type                   : Progressive
Compression mode            : Lossy
Bits/(Pixel*Frame)          : 0.272
Stream size                 : 1.23 GiB (90%)
Writing library             : XviD 1.2.1 (UTC 2008-12-04)

Audio
ID                          : 1
Format                      : AC-3
Format/Info                 : Audio Coding 3
Format settings, Endianness : Big
Codec ID                    : 2000
Duration                    : 1 h 36 min
Bit rate mode               : Constant
Bit rate                    : 192 kb/s
Channel(s)                  : 2 channels
Channel positions           : Front: L R
Sampling rate               : 48.0 kHz
Frame rate                  : 31.250 FPS (1536 SPF)
Bit depth                   : 16 bits
Compression mode            : Lossy
Stream size                 : 132 MiB (9%)
Alignment                   : Split accross interleaves
Interleave, duration        : 42  ms (1.00 video frame)
Interleave, preload duratio : 500  ms
Service kind                : Complete Main

https://d.radikal.ru/d11/1712/7a/89816b295266t.jpg https://c.radikal.ru/c12/1712/fd/a53524e2099dt.jpg
https://b.radikal.ru/b21/1712/6b/48ff595ad752t.jpg https://a.radikal.ru/a04/1712/3f/122a0b16d19at.jpg
https://a.radikal.ru/a17/1712/2c/3cd1b21af0bct.jpg https://d.radikal.ru/d37/1712/80/58b0e1462338t.jpg


Привет, гость
Информация

Торрент трекер ExKinoRay.TV

Здесь вы можете скачать через торрент новые фильмы, скачать новое кино, сериалы, игры, музыку, софт и многое другое. Большая скорость скачивания на мультитрекерных раздачах. Всё абсолютно бесплатно.