Bryan Adams - Wembley 1996 Live | 2016 | DVDRip -
  • 1
  • 2
  • 29
  • 0
  • 0
  • 1
1.99 GB (2,139,639,808)
2017-12-30 21:01:01 2017-12-30 21:40:22
  http://s018.radikal.ru/i507/1605/a4/ac035f69f65b.gif
, .
:
!

...
General
Complete name : C:\Users\User\Desktop\ \Bryan.Adams-Wembley.1996.Live.2017.XviD.DVDRip-.avi
Format: AVI
Format/Info : Audio Video Interleave
Format profile: OpenDML
File size : 1.99 GiB
Duration: 2 h 22 min
Overall bit rate: 1 999 kb/s
Writing application : VirtualDubMod 1.5.10.3 | www.virtualdub-fr.org || (build 2550/release)
Writing library : VirtualDubMod build 2550/release

Video
ID: 0
Format: MPEG-4 Visual
Format profile: Advanced Simple@L5
Format settings : BVOP1 / Custom Matrix
Format settings, BVOP : 1
Format settings, QPel : No
Format settings, GMC: No warppoints
Format settings, Matrix : Custom
Codec ID: XVID
Codec ID/Hint : XviD
Duration: 2 h 22 min
Bit rate: 1 730 kb/s
Width : 704 pixels
Height: 528 pixels
Display aspect ratio: 4:3
Frame rate: 23.976 (24000/1001) FPS
Color space : YUV
Chroma subsampling: 4:2:0
Bit depth : 8 bits
Scan type : Progressive
Compression mode: Lossy
Bits/(Pixel*Frame): 0.194
Stream size : 1.72 GiB (87%)
Writing library : XviD 1.2.1 (UTC 2008-12-04)

Audio
ID: 1
Format: AC-3
Format/Info : Audio Coding 3
Format settings, Endianness : Big
Codec ID: 2000
Duration: 2 h 22 min
Bit rate mode : Constant
Bit rate: 256 kb/s
Channel(s): 2 channels
Channel positions : Front: L R
Sampling rate : 48.0 kHz
Frame rate: 31.250 FPS (1536 SPF)
Bit depth : 16 bits
Compression mode: Lossy
Stream size : 261 MiB (13%)
Alignment : Split accross interleaves
Interleave, duration: 42ms (1.00 video frame)
Interleave, preload duratio : 500ms
Service kind: Complete Main

https://d.radikal.ru/d24/1712/ee/1bc8315b614bt.jpg https://c.radikal.ru/c27/1712/a6/a93410eaa1cbt.jpg
https://c.radikal.ru/c08/1712/3f/d5242de6a251t.jpg https://b.radikal.ru/b41/1712/88/150988f9dde7t.jpg
https://d.radikal.ru/d20/1712/90/d8c24ec556e4t.jpg https://d.radikal.ru/d11/1712/ec/a0159dcc9410t.jpg
01. The Only Thing That Looks Good On Me Is You
02. Do To You
03. Kids Wanna Rock
04. Can't Stop This Thing We Started
05. This Time
06. 18 'Til I Die
07. Have You Ever Really Loved A Woman?
08. Touch The Hand?
09. Cuts Like A Knife
10. It's Only Love
11. Somebody
12. (Everything I Do) I Do It For You
13. Run To You
14. There Will Never Be Another Tonight
15. Seven Nights To Rock
16. I Wanna Be Your Underwear
17. Wild Thing
18. It Ain't A Party (If You Can't Come 'Round)
19. She's Only Happy When Shes Dancin'
20. Summer Of '69
21. All For Love
22. Let's Make A Night To Remember
23. I Fought The Law
24. Heaven


,

ExKinoRay.TV

, , , , , . . .