Mystery - Second Home (Live At ProgDreams V) | 2017 | DVDRip -
  • 4
  • 0
  • 28
  • 0
  • 0
  • 1
1.99 GB (2,138,679,296)
2017-12-30 22:05:31 2017-12-30 22:06:07
  http://s018.radikal.ru/i507/1605/a4/ac035f69f65b.gif
, .
:
!

...
General
Complete name : C:\Users\User\Desktop\Mystery\Mystery-Second.Home.2017.XviD.DVDRip-.avi
Format: AVI
Format/Info : Audio Video Interleave
Format profile: OpenDML
File size : 1.99 GiB
Duration: 2 h 5 min
Overall bit rate: 2 267 kb/s
Writing application : VirtualDubMod 1.5.10.3 | www.virtualdub-fr.org || (build 2550/release)
Writing library : VirtualDubMod build 2550/release

Video
ID: 0
Format: MPEG-4 Visual
Format profile: Advanced Simple@L5
Format settings : BVOP1 / Custom Matrix
Format settings, BVOP : 1
Format settings, QPel : No
Format settings, GMC: No warppoints
Format settings, Matrix : Custom
Codec ID: XVID
Codec ID/Hint : XviD
Duration: 2 h 5 min
Bit rate: 2 063 kb/s
Width : 704 pixels
Height: 400 pixels
Display aspect ratio: 16:9
Frame rate: 23.976 (24000/1001) FPS
Original frame rate : 23.976 (23976/1000) FPS
Color space : YUV
Chroma subsampling: 4:2:0
Bit depth : 8 bits
Scan type : Progressive
Compression mode: Lossy
Bits/(Pixel*Frame): 0.306
Stream size : 1.81 GiB (91%)
Writing library : XviD 1.2.1 (UTC 2008-12-04)

Audio
ID: 1
Format: AC-3
Format/Info : Audio Coding 3
Format settings, Endianness : Big
Codec ID: 2000
Duration: 2 h 5 min
Bit rate mode : Constant
Bit rate: 192 kb/s
Channel(s): 2 channels
Channel positions : Front: L R
Sampling rate : 48.0 kHz
Frame rate: 31.250 FPS (1536 SPF)
Bit depth : 16 bits
Compression mode: Lossy
Stream size : 173 MiB (8%)
Alignment : Split accross interleaves
Interleave, duration: 42ms (1.00 video frame)
Interleave, preload duratio : 500ms
Service kind: Complete Main

https://a.radikal.ru/a42/1712/5a/aa506af1a55dt.jpg https://b.radikal.ru/b26/1712/b2/865a766da996t.jpg
https://a.radikal.ru/a05/1712/78/57210d493592t.jpg https://c.radikal.ru/c15/1712/c2/c53ba1a5b062t.jpg
https://b.radikal.ru/b05/1712/b7/769a7e64d107t.jpg https://c.radikal.ru/c25/1712/f2/cde984f5143ct.jpg
01. Delusion Rain
02. Travel To The Night
03. If You See Her
04. Another Day
05. Wall Street King
06. Pride
07. The Last Glass Of Wine
08. Shadow Of The Lake
09. Dear Someone
10. A Song For You
11. Through Different Eyes
12. The Preacher's Fall


,

ExKinoRay.TV

, , , , , . . .