U2 - Live in London | 2017 | HDTVRip -
  • 5
  • 0
  • 20
  • 0
  • 0
  • 1
700.49 MB (734,517,248)
2018-01-09 17:54:39 2018-01-09 17:55:09
  http://s018.radikal.ru/i507/1605/a4/ac035f69f65b.gif
, .
:
!

...
General
Complete name : C:\Users\User\Desktop\Leonard Cohen\U2-Live.in.London.XviD.HDTVRip-.avi
Format: AVI
Format/Info : Audio Video Interleave
File size : 700 MiB
Duration: 43 min 59 s
Overall bit rate: 2 226 kb/s
Writing application : VirtualDubMod 1.5.10.3 | www.virtualdub-fr.org || (build 2550/release)
Writing library : VirtualDubMod build 2550/release

Video
ID: 0
Format: MPEG-4 Visual
Format profile: Advanced Simple@L5
Format settings : BVOP1 / Custom Matrix
Format settings, BVOP : 1
Format settings, QPel : No
Format settings, GMC: No warppoints
Format settings, Matrix : Custom
Codec ID: XVID
Codec ID/Hint : XviD
Duration: 43 min 59 s
Bit rate: 1 833 kb/s
Width : 704 pixels
Height: 400 pixels
Display aspect ratio: 16:9
Frame rate: 23.976 (24000/1001) FPS
Original frame rate : 23.976 (23976/1000) FPS
Color space : YUV
Chroma subsampling: 4:2:0
Bit depth : 8 bits
Scan type : Progressive
Compression mode: Lossy
Bits/(Pixel*Frame): 0.271
Stream size : 577 MiB (82%)
Writing library : XviD 1.2.1 (UTC 2008-12-04)

Audio
ID: 1
Format: AC-3
Format/Info : Audio Coding 3
Format settings, Endianness : Big
Codec ID: 2000
Duration: 43 min 59 s
Bit rate mode : Constant
Bit rate: 384 kb/s
Channel(s): 6 channels
Channel positions : Front: L C R, Side: L R, LFE
Sampling rate : 48.0 kHz
Frame rate: 31.250 FPS (1536 SPF)
Bit depth : 16 bits
Compression mode: Lossy
Stream size : 121 MiB (17%)
Alignment : Split accross interleaves
Interleave, duration: 42ms (1.00 video frame)
Interleave, preload duratio : 500ms
Service kind: Complete Main

https://b.radikal.ru/b13/1801/54/1ff2d343aa56t.jpg https://d.radikal.ru/d38/1801/cf/36415a7849b7t.jpg
https://d.radikal.ru/d28/1801/8f/50e44b730a21t.jpg https://c.radikal.ru/c25/1801/e7/e70814c397b2t.jpg
https://a.radikal.ru/a39/1801/aa/57626ebc937ft.jpg https://a.radikal.ru/a27/1801/c9/005e79a7763dt.jpg
1. Beautiful Day
2. Interview
3. Lights Of Home
4. Behind the scene in Sao Paulo
5. With Or Without You
6. Get Out Of Your Own Way
7. Interview
8. One
9. Love Is Bigger Than Anything In Its Way


,

ExKinoRay.TV

, , , , , . . .