Leonard Cohen Tribute - Tower Of Song | 2017 | HDTVRip -
  • 3
  • 1
  • 20
  • 0
  • 0
  • 1
1.45 GB (1,558,790,144)
2018-01-09 19:19:01 2018-01-09 20:23:17
  http://s018.radikal.ru/i507/1605/a4/ac035f69f65b.gif
, .
:
!

...
General
Complete name : C:\Users\User\Desktop\Leonard Cohen\Leonard.Cohen.Tribute-Tower.Of.Song.2017.XviD.HDTVRip-.avi
Format: AVI
Format/Info : Audio Video Interleave
File size : 1.45 GiB
Duration: 1 h 28 min
Overall bit rate: 2 349 kb/s
Writing application : VirtualDubMod 1.5.10.3 | www.virtualdub-fr.org || (build 2550/release)
Writing library : VirtualDubMod build 2550/release

Video
ID: 0
Format: MPEG-4 Visual
Format profile: Advanced Simple@L5
Format settings : BVOP1 / Custom Matrix
Format settings, BVOP : 1
Format settings, QPel : No
Format settings, GMC: No warppoints
Format settings, Matrix : Custom
Codec ID: XVID
Codec ID/Hint : XviD
Duration: 1 h 28 min
Bit rate: 1 956 kb/s
Width : 704 pixels
Height: 400 pixels
Display aspect ratio: 16:9
Frame rate: 23.976 (24000/1001) FPS
Color space : YUV
Chroma subsampling: 4:2:0
Bit depth : 8 bits
Scan type : Progressive
Compression mode: Lossy
Bits/(Pixel*Frame): 0.290
Stream size : 1.21 GiB (83%)
Writing library : XviD 1.2.1 (UTC 2008-12-04)

Audio
ID: 1
Format: AC-3
Format/Info : Audio Coding 3
Format settings, Endianness : Big
Codec ID: 2000
Duration: 1 h 28 min
Bit rate mode : Constant
Bit rate: 384 kb/s
Channel(s): 6 channels
Channel positions : Front: L C R, Side: L R, LFE
Sampling rate : 48.0 kHz
Frame rate: 31.250 FPS (1536 SPF)
Bit depth : 16 bits
Compression mode: Lossy
Stream size : 243 MiB (16%)
Alignment : Split accross interleaves
Interleave, duration: 42ms (1.00 video frame)
Interleave, preload duratio : 500ms
Service kind: Complete Main

https://b.radikal.ru/b05/1801/b1/1a5f371ce015t.jpg https://b.radikal.ru/b30/1801/81/94166b95faaft.jpg
https://d.radikal.ru/d22/1801/cb/03e17d80b0e9t.jpg https://b.radikal.ru/b06/1801/d5/9583db18a55et.jpg
https://d.radikal.ru/d13/1801/e6/ca2f99e9745et.jpg https://b.radikal.ru/b03/1801/c4/aad30e0b12d2t.jpg
01. Sting - Dance Me To End Of Love
02. Patrick Watson - Who By The Fire
03. Feist - Hey That's No Way To Say Goodbye
04. Wesley Schultz et Jeremiah Fraites du groupe The Lumineers - Democracy
05. Bettye Lavette - In My Secret Life
06. Elvis Costello - The Future
07. Adam Cohen et The Webb Sisters - So long Marianne
08. k.d. lang - Hallelujah
09. Sur vid o C line Dion, Peter Gabriel et Chris Martin - Tower of Song
10. Sting - Sisters of Mercy
11. Courtney Love - Everybody Knows
12. Lana Del Rey et Adam Cohen - Chelsea Hotel
13. Damien Rice - Famous Blue Raincoat
14. Elvis Costello - Bird On The Wire
15. Adam Cohen, Damien Rice et Coeur de pirate - The Partisan
16. La voix de Leonard Cohen avec la chorale Shaar Hashomayim - You Want It Darker


,

ExKinoRay.TV

, , , , , . . .