Ray Wilson - In Concert Baden-Baden Live | 2017 | HDTVRip -
  • 3
  • 0
  • 20
  • 0
  • 0
  • 1
1.37 GB (1,468,631,040)
2018-01-10 17:45:17 2018-01-10 17:48:50
  http://s018.radikal.ru/i507/1605/a4/ac035f69f65b.gif
, .
:
!

...
General
Complete name : C:\Users\User\Desktop\Ray Wilson\Ray.Wilson-In.Concert.Baden-Baden.Live.2017.XviD.HDTVRip-.avi
Format: AVI
Format/Info : Audio Video Interleave
File size : 1.37 GiB
Duration: 1 h 29 min
Overall bit rate: 2 188 kb/s
Writing application : VirtualDubMod 1.5.10.3 | www.virtualdub-fr.org || (build 2550/release)
Writing library : VirtualDubMod build 2550/release

Video
ID: 0
Format: MPEG-4 Visual
Format profile: Advanced Simple@L5
Format settings : BVOP1 / Custom Matrix
Format settings, BVOP : 1
Format settings, QPel : No
Format settings, GMC: No warppoints
Format settings, Matrix : Custom
Codec ID: XVID
Codec ID/Hint : XviD
Duration: 1 h 29 min
Bit rate: 1 923 kb/s
Width : 704 pixels
Height: 400 pixels
Display aspect ratio: 16:9
Frame rate: 25.000 FPS
Color space : YUV
Chroma subsampling: 4:2:0
Bit depth : 8 bits
Scan type : Progressive
Compression mode: Lossy
Bits/(Pixel*Frame): 0.273
Stream size : 1.20 GiB (88%)
Writing library : XviD 1.2.1 (UTC 2008-12-04)

Audio
ID: 1
Format: AC-3
Format/Info : Audio Coding 3
Format settings, Endianness : Big
Codec ID: 2000
Duration: 1 h 29 min
Bit rate mode : Constant
Bit rate: 256 kb/s
Channel(s): 2 channels
Channel positions : Front: L R
Sampling rate : 48.0 kHz
Frame rate: 31.250 FPS (1536 SPF)
Bit depth : 16 bits
Compression mode: Lossy
Stream size : 164 MiB (12%)
Alignment : Split accross interleaves
Interleave, duration: 40ms (1.00 video frame)
Interleave, preload duratio : 500ms
Service kind: Complete Main

http://i103.fastpic.ru/thumb/2018/0110/51/ef5d5263149d7ff5d1250ef4d0477b51.jpeg http://i103.fastpic.ru/thumb/2018/0110/c2/8601a37f9eb90ce4dd940112a51769c2.jpeg
http://i103.fastpic.ru/thumb/2018/0110/d0/3155c96061dddcbaddffce35f77840d0.jpeg http://i103.fastpic.ru/thumb/2018/0110/fe/3c8b73005e71ce4545f56656d7a6effe.jpeg
http://i103.fastpic.ru/thumb/2018/0110/3f/e27950920ca2083afbeeb23ef66afa3f.jpeg http://i103.fastpic.ru/thumb/2018/0110/b5/3f89d69ccb7e1871c7fe2625cfce28b5.jpeg
01. No Son Of Mine
02. Wait For Better Days
03. That's All
04. Not About Us
05. Take It Slow
06. Carpet Crawlers
07. Another Days
08. Alone
09. Follow You Follow Me
10 .Change
11. Solsbury Hill
12. Not Long Till Springtime
13. Makes Me Think Of Home
14. Land Of Confusion
15. Mama
16. American Beauty


,

ExKinoRay.TV

, , , , , . . .