Ray Wilson - In Concert Baden-Baden Live | 2017 | HDTVRip (AVC) -
  • 1
  • 3
  • 130
  • 0
  • 0
  • 1
1.91 GB (2,049,108,383)
2018-01-11 14:03:58 2018-01-11 14:18:11
  http://s018.radikal.ru/i507/1605/a4/ac035f69f65b.gif
, .
:
!

...
General
Unique ID : 191206073412785035466593996380754484853 (0x8FD8F3427FA6B457A6E92F1C1DA51E75)
Complete name : C:\Users\User\Desktop\Ray Wilson\Ray.Wilson-In.Concert.Baden-Baden.Live.2017.x264.HDTVRip(AVC)-.mkv
Format: Matroska
Format version: Version 2
File size : 1.91 GiB
Duration: 1 h 29 min
Overall bit rate: 3 053 kb/s
Encoded date: UTC 2018-01-11 08:50:15
Writing application : mkvmerge v5.6.0 ('Kenya Kane') built on Jun 29 2012 15:01:44
Writing library : libebml v1.2.3 + libmatroska v1.3.0

Video
ID: 1
Format: AVC
Format/Info : Advanced Video Codec
Format profile: High@L4.1
Format settings : CABAC / 9 Ref Frames
Format settings, CABAC: Yes
Format settings, RefFrames: 9 frames
Codec ID: V_MPEG4/ISO/AVC
Duration: 1 h 29 min
Bit rate: 2 796 kb/s
Width : 1 024 pixels
Height: 576 pixels
Display aspect ratio: 16:9
Frame rate mode : Constant
Frame rate: 25.000 FPS
Color space : YUV
Chroma subsampling: 4:2:0
Bit depth : 8 bits
Scan type : Progressive
Bits/(Pixel*Frame): 0.190
Stream size : 1.71 GiB (90%)
Writing library : x264 core 125 r2200 999b753
Encoding settings : cabac=1 / ref=9 / deblock=1:-3:-3 / analyse=0x3:0x113 / me=umh / subme=11 / psy=1 / psy_rd=1.00:0.20 / mixed_ref=1 / me_range=32 / chroma_me=1 / trellis=2 / 8x8dct=1 / cqm=0 / deadzone=21,11 / fast_pskip=0 / chroma_qp_offset=-3 / threads=12 / lookahead_threads=2 / sliced_threads=0 / nr=0 / decimate=0 / interlaced=0 / bluray_compat=0 / constrained_intra=0 / bframes=12 / b_pyramid=2 / b_adapt=2 / b_bias=0 / direct=3 / weightb=1 / open_gop=0 / weightp=2 / keyint=240 / keyint_min=24 / scenecut=40 / intra_refresh=0 / rc_lookahead=40 / rc=2pass / mbtree=0 / bitrate=2796 / ratetol=1.0 / qcomp=0.60 / qpmin=0 / qpmax=69 / qpstep=4 / cplxblur=20.0 / qblur=0.5 / vbv_maxrate=50000 / vbv_bufsize=50000 / nal_hrd=none / ip_ratio=1.40 / pb_ratio=1.30 / aq=1:1.00
Default : Yes
Forced: No

Audio
ID: 2
Format: AC-3
Format/Info : Audio Coding 3
Format settings, Endianness : Big
Codec ID: A_AC3
Duration: 1 h 29 min
Bit rate mode : Constant
Bit rate: 256 kb/s
Channel(s): 2 channels
Channel positions : Front: L R
Sampling rate : 48.0 kHz
Frame rate: 31.250 FPS (1536 SPF)
Bit depth : 16 bits
Compression mode: Lossy
Stream size : 164 MiB (8%)
Service kind: Complete Main
Default : Yes
Forced: No

https://a.radikal.ru/a37/1801/29/e1b581d238c5t.jpg https://a.radikal.ru/a20/1801/0b/2cdbae14563et.jpg
https://c.radikal.ru/c16/1801/25/c6ef58e9d1d6t.jpg https://c.radikal.ru/c25/1801/b2/dab171ecdc2bt.jpg
https://d.radikal.ru/d05/1801/0f/2e00a76830a5t.jpg https://c.radikal.ru/c12/1801/02/78d82b5edb6ft.jpg
01. No Son Of Mine
02. Wait For Better Days
03. That's All
04. Not About Us
05. Take It Slow
06. Carpet Crawlers
07. Another Days
08. Alone
09. Follow You Follow Me
10 .Change
11. Solsbury Hill
12. Not Long Till Springtime
13. Makes Me Think Of Home
14. Land Of Confusion
15. Mama
16. American Beauty


,

ExKinoRay.TV

, , , , , . . .