Barbra Streisand - The Music...The Mem'ries...The Magic! | 2017 | WEB-DLRip -
  • 1
  • 6
  • 20
  • 0
  • 0
  • 1
1.45 GB (1,559,590,912)
2018-01-13 15:16:54 2018-01-13 15:20:38
  http://s018.radikal.ru/i507/1605/a4/ac035f69f65b.gif
, .
:
!

...
General
Complete name : C:\Users\User\Desktop\\Barbra.Streisand-The.Music...The Mem'ries...The Magic.2017.XviD.WEB-DLRip-.avi
Format: AVI
Format/Info : Audio Video Interleave
File size : 1.45 GiB
Duration: 1 h 48 min
Overall bit rate: 1 912 kb/s
Writing application : VirtualDubMod 1.5.10.3 | www.virtualdub-fr.org || (build 2550/release)
Writing library : VirtualDubMod build 2550/release

Video
ID: 0
Format: MPEG-4 Visual
Format profile: Advanced Simple@L5
Format settings : BVOP1 / Custom Matrix
Format settings, BVOP : 1
Format settings, QPel : No
Format settings, GMC: No warppoints
Format settings, Matrix : Custom
Codec ID: XVID
Codec ID/Hint : XviD
Duration: 1 h 48 min
Bit rate: 1 519 kb/s
Width : 704 pixels
Height: 400 pixels
Display aspect ratio: 16:9
Frame rate: 23.976 (24000/1001) FPS
Color space : YUV
Chroma subsampling: 4:2:0
Bit depth : 8 bits
Scan type : Progressive
Compression mode: Lossy
Bits/(Pixel*Frame): 0.225
Stream size : 1.15 GiB (79%)
Writing library : XviD 1.2.1 (UTC 2008-12-04)

Audio
ID: 1
Format: AC-3
Format/Info : Audio Coding 3
Format settings, Endianness : Big
Codec ID: 2000
Duration: 1 h 48 min
Bit rate mode : Constant
Bit rate: 384 kb/s
Channel(s): 6 channels
Channel positions : Front: L C R, Side: L R, LFE
Sampling rate : 48.0 kHz
Frame rate: 31.250 FPS (1536 SPF)
Bit depth : 16 bits
Compression mode: Lossy
Stream size : 299 MiB (20%)
Alignment : Split accross interleaves
Interleave, duration: 42ms (1.00 video frame)
Interleave, preload duratio : 500ms
Service kind: Complete Main

https://d.radikal.ru/d21/1801/aa/89c20b82b7dbt.jpg https://c.radikal.ru/c17/1801/ac/b1c7ae6fb6c3t.jpg
https://c.radikal.ru/c04/1801/70/625941386c81t.jpg https://c.radikal.ru/c27/1801/af/9161562c2e0et.jpg
https://a.radikal.ru/a16/1801/91/806f4bc291f2t.jpg https://b.radikal.ru/b08/1801/90/7c4aad007457t.jpg
01. People (Overture)
02. The Way We Were
03. Introductory Remarks
04. Everything
05. Being At War With Each Other
06. No More Tears (Enough Is Enough)
07. Evergreen
08. You Don't Bring Me Flowers
09. Being Alive
10. Directing Movies
11. Papa, Can You Hear Me
12. Pure Imagination
13. Making Encore
14. Who Can I Turn To (When Nobody Needs Me)
15. Losing My Mind
16. Isn't This Better
17. How Lucky Can You Get
18. Don't Rain On My Parade
19. People
20. Climb Ev'ry Mountain
21. Happy Days Are Here Again
22. Jingle Bells
23. With One More Look At You
24. I Didn't Know What Time It Was
25. By The Way
26. Children Will Listen
27. Everything Must Change


,

ExKinoRay.TV

, , , , , . . .