Страх и ненависть в Лас-Вегасе | Fear and Loathing in Las Vegas | 1998 | HDDVD Remux 1080p | MVO, DVO, AVO (Гаврилов, Казаков) Одобрено администрацией

Участники
  • Раздают0
  • Качают0
  • Просмотров139
  • Скачали2
  • Комментариев4
  • Список файлов1
Залил раздачу
Поблагодарить
Характеристики
Вес17.61 GB (18,903,465,453)
Залит2018-02-02 21:06:45 Обновлено2018-02-04 12:25:32
Сетевая Нет
Чтобы скачать, необходимо авторизоваться или зарегистрироваться.
Статус: Одобрено администрацией
Хотите видеть детали Раздачи пройдите авторизацию или регистрацию!

Спасибо за понимание...
Русский: DD 5.1 (AC3), 48 kHz, ~448 kbps (Гаврилов);
Русский: DTS 5.1 (DTS), 48 kHz, ~768 kbps (Гланц+Королёва);
Русский: DTS 5.1 (DTS), 48 kHz, ~768 kbps (Казаков);
Русский: DD 5.1 (AC3), 48 kHz, ~448 kbps (многоголосый, Тайкун);
Английский: DTS 5.1 (DTS), 48 kHz, ~1536 kbps


General
Format                      : Matroska
Format version              : Version 1
File size                   : 17.6 GiB
Duration                    : 1 h 58 min
Overall bit rate            : 21.3 Mb/s
Encoded date                : UTC 2008-03-11 08:58:19
Writing application         : mkvmerge v2.1.0 ('Another Place To Fall') built on Aug 19 2007 13:40:07
Writing library             : libebml v0.7.7 + libmatroska v0.8.1

Video
ID                          : 1
Format                      : VC-1
Format profile              : Advanced@L3
Codec ID                    : V_MS/VFW/FOURCC / WVC1
Codec ID/Hint               : Microsoft
Duration                    : 1 h 58 min
Bit rate                    : 16.9 Mb/s
Width                       : 1 920 pixels
Height                      : 1 080 pixels
Display aspect ratio        : 16:9
Frame rate mode             : Constant
Frame rate                  : 23.976 FPS
Original frame rate         : 29.970 (30000/1001) FPS
Color space                 : YUV
Chroma subsampling          : 4:2:0
Bit depth                   : 8 bits
Scan type                   : Progressive
Compression mode            : Lossy
Bits/(Pixel*Frame)          : 0.341
Stream size                 : 14.0 GiB (80%)
Title                       : Fear and Loathing in Las Vegas
Language                    : English
Default                     : Yes
Forced                      : No

Audio #1
ID                          : 2
Format                      : AC-3
Format/Info                 : Audio Coding 3
Codec ID                    : A_AC3
Duration                    : 1 h 58 min
Bit rate mode               : Constant
Bit rate                    : 448 kb/s
Channel(s)                  : 6 channels
Channel positions           : Front: L C R, Side: L R, LFE
Sampling rate               : 48.0 kHz
Frame rate                  : 31.250 FPS (1536 SPF)
Bit depth                   : 16 bits
Compression mode            : Lossy
Stream size                 : 380 MiB (2%)
Title                       : Russian AC3 5.1 448 kbps /Gavrilov/
Language                    : Russian
Service kind                : Complete Main
Default                     : Yes
Forced                      : No

Audio #2
ID                          : 3
Format                      : DTS
Format/Info                 : Digital Theater Systems
Codec ID                    : A_DTS
Duration                    : 1 h 58 min
Bit rate mode               : Constant
Bit rate                    : 755 kb/s
Channel(s)                  : 6 channels
Channel positions           : Front: L C R, Side: L R, LFE
Sampling rate               : 48.0 kHz
Frame rate                  : 93.750 FPS (512 SPF)
Bit depth                   : 24 bits
Compression mode            : Lossy
Stream size                 : 639 MiB (4%)
Title                       : Russian DTS 5.1 768 kbps /Glanz+Koroleva/
Language                    : Russian
Default                     : No
Forced                      : No

Audio #3
ID                          : 4
Format                      : DTS
Format/Info                 : Digital Theater Systems
Codec ID                    : A_DTS
Duration                    : 1 h 58 min
Bit rate mode               : Constant
Bit rate                    : 755 kb/s
Channel(s)                  : 6 channels
Channel positions           : Front: L C R, Side: L R, LFE
Sampling rate               : 48.0 kHz
Frame rate                  : 93.750 FPS (512 SPF)
Bit depth                   : 24 bits
Compression mode            : Lossy
Stream size                 : 639 MiB (4%)
Title                       : Russian DTS 5.1 768 kbps /Kazakov/
Language                    : Russian
Default                     : No
Forced                      : No

Audio #4
ID                          : 5
Format                      : AC-3
Format/Info                 : Audio Coding 3
Codec ID                    : A_AC3
Duration                    : 1 h 58 min
Bit rate mode               : Constant
Bit rate                    : 448 kb/s
Channel(s)                  : 6 channels
Channel positions           : Front: L C R, Side: L R, LFE
Sampling rate               : 48.0 kHz
Frame rate                  : 31.250 FPS (1536 SPF)
Bit depth                   : 16 bits
Compression mode            : Lossy
Stream size                 : 380 MiB (2%)
Title                       : Russian AC3 5.1 448 kbps /Tycoon/
Language                    : Russian
Service kind                : Complete Main
Default                     : No
Forced                      : No

Audio #5
ID                          : 6
Format                      : DTS
Format/Info                 : Digital Theater Systems
Codec ID                    : A_DTS
Duration                    : 1 h 58 min
Bit rate mode               : Constant
Bit rate                    : 1 510 kb/s
Channel(s)                  : 6 channels
Channel positions           : Front: L C R, Side: L R, LFE
Sampling rate               : 48.0 kHz
Frame rate                  : 93.750 FPS (512 SPF)
Bit depth                   : 24 bits
Compression mode            : Lossy
Stream size                 : 1.25 GiB (7%)
Title                       : English DTS 5.1 1536 kbps
Language                    : English
Default                     : No
Forced                      : No

Text #1
ID                          : 7
Format                      : UTF-8
Codec ID                    : S_TEXT/UTF8
Codec ID/Info               : UTF-8 Plain Text
Title                       : Russian Subs 1
Language                    : Russian
Default                     : Yes
Forced                      : No

Text #2
ID                          : 8
Format                      : UTF-8
Codec ID                    : S_TEXT/UTF8
Codec ID/Info               : UTF-8 Plain Text
Title                       : Russian Subs 2
Language                    : Russian
Default                     : No
Forced                      : No

Text #3
ID                          : 9
Format                      : UTF-8
Codec ID                    : S_TEXT/UTF8
Codec ID/Info               : UTF-8 Plain Text
Title                       : English Subs
Language                    : English
Default                     : No
Forced                      : No
     

skychap | 2018-06-29 12:30:17
 
А 1080р будет?
  |

Enigma | 2018-02-02 22:31:17
 
minimalfly писал
Enigma писал
Здравствуйте! Немного подправила Вам оформление техданных. В остальном всё хорошо. Спасибо за раздачу.

Спасибо буду знать как оформлять на будущее!
Постараюсь Ваш сайт удобрить Remux`ами

Спасибо, это качество у нас любят качать
  |

minimalfly | 2018-02-02 22:26:24
 
Enigma писал
Здравствуйте! Немного подправила Вам оформление техданных. В остальном всё хорошо. Спасибо за раздачу.

Спасибо буду знать как оформлять на будущее!
Постараюсь Ваш сайт удобрить Remux`ами
  |

Enigma | 2018-02-02 22:20:17
 
Здравствуйте! Немного подправила Вам оформление техданных. В остальном всё хорошо. Спасибо за раздачу.
  |

Страницы:  1 
Привет, гость
- Запомнить
Регистрация
Информация

Торрент трекер ExKinoRay.TV

Здесь вы можете скачать новые фильмы, сериалы, игры, музыку, софт и многое другое. Большая скорость скачивания на мультитрекерных раздачах. Всё абсолютно бесплатно.