Barbra Streisand - The Music...The Mem'ries...The Magic! | 2017 | WEB-DLRip (720p) - Лумина Одобрено администрацией

Участники
  • Раздают0
  • Качают1
  • Просмотров169
  • Скачали0
  • Комментариев0
  • Список файлов1
Залил раздачу
Поблагодарить
Характеристики
Вес1.59 GB (1,708,509,744)
Залит2018-02-04 18:36:36 Обновлено2018-02-04 18:37:20
Сетевая Нет
  http://s018.radikal.ru/i507/1605/a4/ac035f69f65b.gif
Чтобы скачать, необходимо авторизоваться или зарегистрироваться.
Статус: Одобрено администрацией
Хотите видеть детали Раздачи пройдите авторизацию или регистрацию!

Спасибо за понимание...
General
Unique ID                   : 250203633587254750513078648268746911432 (0xBC3B778E1982AC74BFD2D017A6FFEEC8)
Complete name               : C:\Users\User\Desktop\Барбара\Barbra.Streisand-The.Music...The Memries...The Magic.2017.x264.WEB-DLRip(720p)-Лумина.mkv
Format                      : Matroska
Format version              : Version 2
File size                   : 1.59 GiB
Duration                    : 1 h 48 min
Overall bit rate            : 2 094 kb/s
Encoded date                : UTC 2018-01-13 20:17:16
Writing application         : mkvmerge v5.6.0 ('Kenya Kane') built on Jun 29 2012 15:01:44
Writing library             : libebml v1.2.3 + libmatroska v1.3.0

Video
ID                          : 1
Format                      : AVC
Format/Info                 : Advanced Video Codec
Format profile              : High@L4.1
Format settings             : CABAC / 8 Ref Frames
Format settings, CABAC      : Yes
Format settings, RefFrames  : 8 frames
Codec ID                    : V_MPEG4/ISO/AVC
Duration                    : 1 h 48 min
Bit rate                    : 1 709 kb/s
Width                       : 1 280 pixels
Height                      : 720 pixels
Display aspect ratio        : 16:9
Frame rate mode             : Constant
Frame rate                  : 23.976 (24000/1001) FPS
Color space                 : YUV
Chroma subsampling          : 4:2:0
Bit depth                   : 8 bits
Scan type                   : Progressive
Bits/(Pixel*Frame)          : 0.077
Stream size                 : 1.27 GiB (80%)
Writing library             : x264 core 125 r2200 999b753
Encoding settings           : cabac=1 / ref=8 / deblock=1:-3:-3 / analyse=0x3:0x113 / me=umh / subme=10 / psy=1 / psy_rd=1.00:0.20 / mixed_ref=1 / me_range=32 / chroma_me=1 / trellis=2 / 8x8dct=1 / cqm=0 / deadzone=21,11 / fast_pskip=0 / chroma_qp_offset=-3 / threads=12 / lookahead_threads=2 / sliced_threads=0 / nr=0 / decimate=0 / interlaced=0 / bluray_compat=0 / constrained_intra=0 / bframes=11 / b_pyramid=2 / b_adapt=2 / b_bias=0 / direct=3 / weightb=1 / open_gop=0 / weightp=2 / keyint=240 / keyint_min=23 / scenecut=40 / intra_refresh=0 / rc_lookahead=40 / rc=2pass / mbtree=0 / bitrate=1709 / ratetol=1.0 / qcomp=0.60 / qpmin=0 / qpmax=69 / qpstep=4 / cplxblur=20.0 / qblur=0.5 / vbv_maxrate=50000 / vbv_bufsize=50000 / nal_hrd=none / ip_ratio=1.40 / pb_ratio=1.30 / aq=1:1.00
Default                     : Yes
Forced                      : No

Audio
ID                          : 2
Format                      : AC-3
Format/Info                 : Audio Coding 3
Format settings, Endianness : Big
Codec ID                    : A_AC3
Duration                    : 1 h 48 min
Bit rate mode               : Constant
Bit rate                    : 384 kb/s
Channel(s)                  : 6 channels
Channel positions           : Front: L C R, Side: L R, LFE
Sampling rate               : 48.0 kHz
Frame rate                  : 31.250 FPS (1536 SPF)
Bit depth                   : 16 bits
Compression mode            : Lossy
Stream size                 : 299 MiB (18%)
Service kind                : Complete Main
Default                     : Yes
Forced                      : No

https://a.radikal.ru/a32/1801/41/7401162b8bf3t.jpg https://d.radikal.ru/d28/1801/29/fa09d9311472t.jpg
https://d.radikal.ru/d21/1801/74/f431ff07ea24t.jpg https://a.radikal.ru/a38/1801/29/e3d683dbc785t.jpg
https://a.radikal.ru/a27/1801/b6/3dc0f93fe9d3t.jpg https://c.radikal.ru/c13/1801/55/449131b7440et.jpg
01. People (Overture)
02. The Way We Were
03. Introductory Remarks
04. Everything
05. Being At War With Each Other
06. No More Tears (Enough Is Enough)
07. Evergreen
08. You Don't Bring Me Flowers
09. Being Alive
10. Directing Movies
11. Papa, Can You Hear Me
12. Pure Imagination
13. Making Encore
14. Who Can I Turn To (When Nobody Needs Me)
15. Losing My Mind
16. Isn't This Better
17. How Lucky Can You Get
18. Don't Rain On My Parade
19. People
20. Climb Ev'ry Mountain
21. Happy Days Are Here Again
22. Jingle Bells
23. With One More Look At You
24. I Didn't Know What Time It Was
25. By The Way
26. Children Will Listen
27. Everything Must Change


Привет, гость
Информация

Торрент трекер ExKinoRay.TV

Здесь вы можете скачать новые фильмы, сериалы, игры, музыку, софт и многое другое. Большая скорость скачивания на мультитрекерных раздачах. Всё абсолютно бесплатно.