Monatik - Vitamin D | 2017 | WEBRip (AVC) -
  • 2
  • 0
  • 126
  • 0
  • 0
  • 1
1.86 GB (2,000,906,622)
2018-02-04 18:41:34 2018-02-04 18:42:08
  http://s018.radikal.ru/i507/1605/a4/ac035f69f65b.gif
, .
:
!

...
General
Unique ID : 223617312784783825220170144962795986815 (0xA83B20BC957B78AC99DDF3DD6E56DF7F)
Complete name : C:\Users\User\Desktop\Monatik\MONATIK-³-D.x264.WEBRip(AVC)-.mkv
Format: Matroska
Format version: Version 2
File size : 1.86 GiB
Duration: 1 h 32 min
Overall bit rate: 2 869 kb/s
Encoded date: UTC 2018-01-14 23:12:28
Writing application : mkvmerge v5.6.0 ('Kenya Kane') built on Jun 29 2012 15:01:44
Writing library : libebml v1.2.3 + libmatroska v1.3.0

Video
ID: 1
Format: AVC
Format/Info : Advanced Video Codec
Format profile: High@L4.1
Format settings : CABAC / 9 Ref Frames
Format settings, CABAC: Yes
Format settings, RefFrames: 9 frames
Codec ID: V_MPEG4/ISO/AVC
Duration: 1 h 32 min
Bit rate: 2 740 kb/s
Width : 1 024 pixels
Height: 576 pixels
Display aspect ratio: 16:9
Frame rate mode : Constant
Frame rate: 25.000 FPS
Color space : YUV
Chroma subsampling: 4:2:0
Bit depth : 8 bits
Scan type : Progressive
Bits/(Pixel*Frame): 0.186
Stream size : 1.74 GiB (94%)
Writing library : x264 core 125 r2200 999b753
Encoding settings : cabac=1 / ref=9 / deblock=1:-3:-3 / analyse=0x3:0x113 / me=umh / subme=11 / psy=1 / psy_rd=1.00:0.20 / mixed_ref=1 / me_range=32 / chroma_me=1 / trellis=2 / 8x8dct=1 / cqm=0 / deadzone=21,11 / fast_pskip=0 / chroma_qp_offset=-3 / threads=12 / lookahead_threads=2 / sliced_threads=0 / nr=0 / decimate=0 / interlaced=0 / bluray_compat=0 / constrained_intra=0 / bframes=12 / b_pyramid=2 / b_adapt=2 / b_bias=0 / direct=3 / weightb=1 / open_gop=0 / weightp=2 / keyint=240 / keyint_min=24 / scenecut=40 / intra_refresh=0 / rc_lookahead=40 / rc=2pass / mbtree=0 / bitrate=2740 / ratetol=1.0 / qcomp=0.60 / qpmin=0 / qpmax=69 / qpstep=4 / cplxblur=20.0 / qblur=0.5 / vbv_maxrate=50000 / vbv_bufsize=50000 / nal_hrd=none / ip_ratio=1.40 / pb_ratio=1.30 / aq=1:1.00
Default : Yes
Forced: No

Audio
ID: 2
Format: MPEG Audio
Format version: Version 1
Format profile: Layer 3
Format settings : Joint stereo / MS Stereo
Mode: Joint stereo
Mode extension: MS Stereo
Codec ID: A_MPEG/L3
Codec ID/Hint : MP3
Duration: 1 h 32 min
Bit rate mode : Constant
Bit rate: 128 kb/s
Channel(s): 2 channels
Sampling rate : 44.1 kHz
Compression mode: Lossy
Stream size : 85.1 MiB (4%)
Writing library : LAME3.99r
Encoding settings : -m j -V 4 -q 2 -lowpass 17 -b 128
Default : Yes
Forced: No

https://b.radikal.ru/b35/1801/e3/b3d783103854t.jpg https://a.radikal.ru/a08/1801/64/650236061ce3t.jpg
https://a.radikal.ru/a37/1801/bd/a9d849277ef9t.jpg https://a.radikal.ru/a41/1801/5c/4fa4f52369bft.jpg
https://b.radikal.ru/b03/1801/ef/61bb511d1f84t.jpg https://a.radikal.ru/a38/1801/25/4b22e300d324t.jpg
01.
02.
03.
04.
05.
06. ( )
07.
08.
09.
10.
11.
12. ( )
13.
14.
15.
16. D
17.
18. ()


,

ExKinoRay.TV

, , , , , . . .