Bad Company - Live At Red Rock | 2018 | BDRip - Лумина Одобрено администрацией

Участники
  • Раздают2
  • Качают0
  • Просмотров174
  • Скачали0
  • Комментариев0
  • Список файлов1
Залил раздачу
Поблагодарить
Характеристики
Вес1.09 GB (1,171,193,856)
Залит2018-02-04 18:45:15 Обновлено2018-02-04 18:45:45
Сетевая Нет
  http://s018.radikal.ru/i507/1605/a4/ac035f69f65b.gif
Чтобы скачать, необходимо авторизоваться или зарегистрироваться.
Статус: Одобрено администрацией
Хотите видеть детали Раздачи пройдите авторизацию или регистрацию!

Спасибо за понимание...
General
Complete name               : C:\Users\User\Desktop\Bad Company\Bad.Company-Live.At.Red.Rock.2018.XviD.BDRip-Лумина.avi
Format                      : AVI
Format/Info                 : Audio Video Interleave
File size                   : 1.09 GiB
Duration                    : 1 h 13 min
Overall bit rate            : 2 120 kb/s
Writing application         : VirtualDubMod 1.5.10.3 | www.virtualdub-fr.org || (build 2550/release)
Writing library             : VirtualDubMod build 2550/release

Video
ID                          : 0
Format                      : MPEG-4 Visual
Format profile              : Advanced Simple@L5
Format settings             : BVOP1 / Custom Matrix
Format settings, BVOP       : 1
Format settings, QPel       : No
Format settings, GMC        : No warppoints
Format settings, Matrix     : Custom
Codec ID                    : XVID
Codec ID/Hint               : XviD
Duration                    : 1 h 13 min
Bit rate                    : 1 727 kb/s
Width                       : 704 pixels
Height                      : 400 pixels
Display aspect ratio        : 16:9
Frame rate                  : 23.976 (24000/1001) FPS
Color space                 : YUV
Chroma subsampling          : 4:2:0
Bit depth                   : 8 bits
Scan type                   : Progressive
Compression mode            : Lossy
Bits/(Pixel*Frame)          : 0.256
Stream size                 : 910 MiB (81%)
Writing library             : XviD 1.2.1 (UTC 2008-12-04)

Audio
ID                          : 1
Format                      : AC-3
Format/Info                 : Audio Coding 3
Format settings, Endianness : Big
Codec ID                    : 2000
Duration                    : 1 h 13 min
Bit rate mode               : Constant
Bit rate                    : 384 kb/s
Channel(s)                  : 6 channels
Channel positions           : Front: L C R, Side: L R, LFE
Sampling rate               : 48.0 kHz
Frame rate                  : 31.250 FPS (1536 SPF)
Bit depth                   : 16 bits
Compression mode            : Lossy
Stream size                 : 202 MiB (18%)
Alignment                   : Split accross interleaves
Interleave, duration        : 42  ms (1.00 video frame)
Interleave, preload duratio : 500  ms
Service kind                : Complete Main

https://c.radikal.ru/c40/1802/40/13efc30e63f0t.jpg https://c.radikal.ru/c01/1802/d2/ebcd9493f5fft.jpg
https://c.radikal.ru/c26/1802/e7/42941800f583t.jpg https://d.radikal.ru/d40/1802/d1/b12c84cf5555t.jpg
https://a.radikal.ru/a28/1802/91/946239899028t.jpg https://c.radikal.ru/c17/1802/b0/1c51754ea020t.jpg
01. Live for the Music
02. Feel Like Makin' Love
03. Gone, Gone, Gone
04. Burnin' Sky
05. ElectricLand
06. Ready for Love
07. Crazy Circles
08. Seagull
09. Rock N' Roll Fantasy
10. Shooting Star
11. Movin' On
12. Can't Get Enough
13. Bad Company
14. Rock Steady
Похожие раздачиРазмер
Плохая компания | Bad Company | 1995 | BDRip (1080p)11.62 GB


Привет, гость
Информация

Торрент трекер ExKinoRay.TV

Здесь вы можете скачать новые фильмы, сериалы, игры, музыку, софт и многое другое. Большая скорость скачивания на мультитрекерных раздачах. Всё абсолютно бесплатно.