Whitesnake - The Purple Tour Live | 2018 | HDRip - Лумина Одобрено администрацией

Участники
  • Раздают6
  • Качают0
  • Просмотров198
  • Скачали0
  • Комментариев0
  • Список файлов1
Залил раздачу
Поблагодарить
Никто
Характеристики
Вес1.37 GB (1,467,830,272)
Залит2018-02-21 21:35:35 Обновлено2018-02-21 21:36:03
Сетевая Нет
  http://s018.radikal.ru/i507/1605/a4/ac035f69f65b.gif
Чтобы скачать, необходимо авторизоваться или зарегистрироваться.
Статус: Одобрено администрацией
Хотите видеть детали Раздачи пройдите авторизацию или регистрацию!

Спасибо за понимание...
General
Complete name               : C:\Users\User\Desktop\Whitesnake - The Purple Tour\Whitesnake-The.Purple.Tour.2018.XviD.BDRip-Лумина.avi
Format                      : AVI
Format/Info                 : Audio Video Interleave
File size                   : 1.37 GiB
Duration                    : 1 h 20 min
Overall bit rate            : 2 426 kb/s
Writing application         : VirtualDubMod 1.5.10.3 | www.virtualdub-fr.org || (build 2550/release)
Writing library             : VirtualDubMod build 2550/release

Video
ID                          : 0
Format                      : MPEG-4 Visual
Format profile              : Advanced Simple@L5
Format settings             : BVOP1 / Custom Matrix
Format settings, BVOP       : 1
Format settings, QPel       : No
Format settings, GMC        : No warppoints
Format settings, Matrix     : Custom
Codec ID                    : XVID
Codec ID/Hint               : XviD
Duration                    : 1 h 20 min
Bit rate                    : 2 033 kb/s
Width                       : 704 pixels
Height                      : 400 pixels
Display aspect ratio        : 16:9
Frame rate                  : 23.976 (24000/1001) FPS
Color space                 : YUV
Chroma subsampling          : 4:2:0
Bit depth                   : 8 bits
Scan type                   : Progressive
Compression mode            : Lossy
Bits/(Pixel*Frame)          : 0.301
Stream size                 : 1.15 GiB (84%)
Writing library             : XviD 1.2.1 (UTC 2008-12-04)

Audio
ID                          : 1
Format                      : AC-3
Format/Info                 : Audio Coding 3
Format settings, Endianness : Big
Codec ID                    : 2000
Duration                    : 1 h 20 min
Bit rate mode               : Constant
Bit rate                    : 384 kb/s
Channel(s)                  : 6 channels
Channel positions           : Front: L C R, Side: L R, LFE
Sampling rate               : 48.0 kHz
Frame rate                  : 31.250 FPS (1536 SPF)
Bit depth                   : 16 bits
Compression mode            : Lossy
Stream size                 : 222 MiB (16%)
Alignment                   : Split accross interleaves
Interleave, duration        : 42  ms (1.00 video frame)
Interleave, preload duratio : 500  ms
Service kind                : Complete Main

https://b.radikal.ru/b03/1802/ac/2b32c57c1016t.jpg https://b.radikal.ru/b02/1802/f2/754e3dd7c8c6t.jpg
https://c.radikal.ru/c37/1802/e0/3217652941c8t.jpg https://c.radikal.ru/c12/1802/1c/dee7a73edaadt.jpg
https://b.radikal.ru/b27/1802/f6/947cb6978252t.jpg https://c.radikal.ru/c16/1802/fa/eb38becac9c8t.jpg
01. Burn
02. Bad Boys
03. Love Ain’t No Stranger
04. The Gypsy
05. Give Me All Your Love
06. Ain’t No Love In The Heart Of The City
07. Mistreated
08. You Fool No One
09. Soldier of Fortune
10. Is This Love
11. Fool For Your Loving
12. Here I Go Again
13. Still Of The Nigh


Привет, гость
Информация

Торрент трекер ExKinoRay.TV

Здесь вы можете скачать новые фильмы, сериалы, игры, музыку, софт и многое другое. Большая скорость скачивания на мультитрекерных раздачах. Всё абсолютно бесплатно.