Лига справедливости | Justice League | 2017 | BDRip-HEVC (720p) | 60 fps | Dub (iTunes) - R.G. HD-Films Одобрено администрацией

Участники
  • Раздают0
  • Качают0
  • Просмотров134
  • Скачали2
  • Комментариев1
  • Список файлов1
Залил раздачу
Поблагодарить
Характеристики
Вес5.23 GB (5,612,416,930)
Залит2018-03-04 10:54:48 Обновлено2018-04-01 10:52:58
Сетевая Нет
   http://i100.fastpic.ru/big/2018/0206/ed/485776c47797d4b3e8fecae9b99f1ced.gif
Чтобы скачать, необходимо авторизоваться или зарегистрироваться.
Статус: Одобрено администрацией
Хотите видеть детали Раздачи пройдите авторизацию или регистрацию!

Спасибо за понимание...
Авторская группа в ВК
http://i100.fastpic.ru/big/2018/0206/ed/485776c47797d4b3e8fecae9b99f1ced.gif

General
Unique ID : 62521396433865189495407996812433805004 (0x2F092ED62F1B4997C12E38ECE217CECC)
Complete name : D:\Torrents\Лига справедливости BDRip-HEVC 720p 60fps.mkv
Format : Matroska
Format version : Version 4 / Version 2
File size : 5.23 GiB
Duration : 2 h 0 min
Overall bit rate : 6 234 kb/s
Movie name : Justice League 2017 by Tiberiumsun69
Encoded date : UTC 2018-03-04 04:30:45
Writing application : mkvmerge v20.0.0 ('I Am The Sun') 64-bit
Writing library : libebml v1.3.5 + libmatroska v1.4.8

Video
ID : 1
Format : HEVC
Format/Info : High Efficiency Video Coding
Format profile : Main 10@L4@High
Codec ID : V_MPEGH/ISO/HEVC
Duration : 2 h 0 min
Bit rate : 4 981 kb/s
Width : 1 280 pixels
Height : 720 pixels
Display aspect ratio : 16:9
Frame rate mode : Constant
Frame rate : 60.000 FPS
Color space : YUV
Chroma subsampling : 4:2:0
Bit depth : 10 bits
Bits/(Pixel*Frame) : 0.090
Stream size : 4.18 GiB (80%)
Writing library : x265 2.6+49-7219376de42a:[Windows][GCC 8.0.1][64 bit] 10bit
Encoding settings : cpuid=1173503 / frame-threads=3 / numa-pools=8 / wpp / no-pmode / no-pme / psnr / ssim / log-level=2 / input-csp=1 / input-res=1280x720 / interlace=0 / total-frames=432159 / level-idc=40 / high-tier=1 / uhd-bd=0 / ref=4 / no-allow-non-conformance / no-repeat-headers / annexb / no-aud / no-hrd / info / hash=0 / no-temporal-layers / open-gop / min-keyint=25 / keyint=250 / gop-lookahead=0 / bframes=8 / b-adapt=2 / b-pyramid / bframe-bias=0 / rc-lookahead=30 / lookahead-slices=4 / scenecut=40 / radl=0 / no-intra-refresh / ctu=64 / min-cu-size=8 / rect / no-amp / max-tu-size=32 / tu-inter-depth=1 / tu-intra-depth=1 / limit-tu=0 / rdoq-level=2 / dynamic-rd=0.00 / no-ssim-rd / signhide / no-tskip / nr-intra=0 / nr-inter=0 / no-constrained-intra / strong-intra-smoothing / max-merge=3 / limit-refs=3 / limit-modes / me=3 / subme=7 / merange=57 / temporal-mvp / weightp / no-weightb / no-analyze-src-pics / deblock=0:0 / sao / no-sao-non-deblock / rd=4 / no-early-skip / rskip / no-fast-intra / no-tskip-fast / no-cu-lossless / no-b-intra / no-splitrd-skip / rdpenalty=0 / psy-rd=2.00 / psy-rdoq=1.00 / no-rd-refine / no-lossless / cbqpoffs=0 / crqpoffs=0 / rc=crf / crf=22.0 / qcomp=0.70 / qpstep=4 / stats-write=0 / stats-read=0 / vbv-maxrate=30000 / vbv-bufsize=30000 / vbv-init=0.9 / crf-max=0.0 / crf-min=0.0 / ipratio=1.40 / pbratio=1.30 / aq-mode=1 / aq-strength=1.00 / cutree / zone-count=0 / no-strict-cbr / qg-size=32 / no-rc-grain / qpmax=69 / qpmin=0 / no-const-vbv / sar=1 / overscan=0 / videoformat=5 / range=0 / colorprim=2 / transfer=2 / colormatrix=2 / chromaloc=0 / display-window=0 / max-cll=0,0 / min-luma=0 / max-luma=1023 / log2-max-poc-lsb=8 / vui-timing-info / vui-hrd-info / slices=1 / no-opt-qp-pps / no-opt-ref-list-length-pps / no-multi-pass-opt-rps / scenecut-bias=0.05 / no-opt-cu-delta-qp / no-aq-motion / no-hdr / no-hdr-opt / no-dhdr10-opt / analysis-reuse-level=5 / scale-factor=0 / refine-intra=0 / refine-inter=0 / refine-mv=0 / no-limit-sao / ctu-info=0 / no-lowpass-dct / refine-mv-type=0 / copy-pic=1
Default : Yes
Forced : No

Audio #1
ID : 2
Format : AC-3
Format/Info : Audio Coding 3
Codec ID : A_AC3
Duration : 2 h 0 min
Bit rate mode : Constant
Bit rate : 384 kb/s
Channel(s) : 6 channels
Channel positions : Front: L C R, Side: L R, LFE
Sampling rate : 48.0 kHz
Frame rate : 31.250 FPS (1536 SPF)
Bit depth : 16 bits
Compression mode : Lossy
Delay relative to video : 150 ms
Stream size : 330 MiB (6%)
Title : Dub (iTunes)
Language : Russian
Service kind : Complete Main
Default : Yes
Forced : No

Audio #2
ID : 3
Format : AC-3
Format/Info : Audio Coding 3
Codec ID : A_AC3
Duration : 2 h 0 min
Bit rate mode : Constant
Bit rate : 224 kb/s
Channel(s) : 2 channels
Channel positions : Front: L R
Sampling rate : 48.0 kHz
Frame rate : 31.250 FPS (1536 SPF)
Bit depth : 16 bits
Compression mode : Lossy
Delay relative to video : 150 ms
Stream size : 192 MiB (4%)
Title : Dub (iTunes)
Language : Ukrainian
Service kind : Complete Main
Default : No
Forced : No

Audio #3
ID : 4
Format : AC-3
Format/Info : Audio Coding 3
Codec ID : A_AC3
Duration : 2 h 0 min
Bit rate mode : Constant
Bit rate : 640 kb/s
Channel(s) : 6 channels
Channel positions : Front: L C R, Side: L R, LFE
Sampling rate : 48.0 kHz
Frame rate : 31.250 FPS (1536 SPF)
Bit depth : 16 bits
Compression mode : Lossy
Delay relative to video : 150 ms
Stream size : 550 MiB (10%)
Title : Original
Language : English
Service kind : Complete Main
Default : No
Forced : No

Text #1
ID : 5
Format : UTF-8
Codec ID : S_TEXT/UTF8
Codec ID/Info : UTF-8 Plain Text
Duration : 1 h 58 min
Bit rate : 68 b/s
Count of elements : 1011
Stream size : 59.6 KiB (0%)
Title : iTunes
Language : Russian
Default : No
Forced : No

Text #2
ID : 6
Format : UTF-8
Codec ID : S_TEXT/UTF8
Codec ID/Info : UTF-8 Plain Text
Duration : 1 h 58 min
Bit rate : 42 b/s
Count of elements : 1233
Stream size : 36.5 KiB (0%)
Title : Full
Language : English
Default : No
Forced : No

Text #3
ID : 7
Format : UTF-8
Codec ID : S_TEXT/UTF8
Codec ID/Info : UTF-8 Plain Text
Duration : 1 h 58 min
Bit rate : 48 b/s
Count of elements : 1490
Stream size : 42.0 KiB (0%)
Title : SDH
Language : English
Default : No
Forced : No

Text #4
ID : 8
Format : UTF-8
Codec ID : S_TEXT/UTF8
Codec ID/Info : UTF-8 Plain Text
Duration : 1 h 58 min
Bit rate : 68 b/s
Count of elements : 1507
Stream size : 59.4 KiB (0%)
Title : SDH-Colored
Language : English
Default : No
Forced : No

Menu
00:00:00.000 : en:Chapter 1
00:10:56.155 : en:Chapter 2
00:19:16.488 : en:Chapter 3
00:30:41.673 : en:Chapter 4
00:40:19.667 : en:Chapter 5
00:49:56.535 : en:Chapter 6
01:01:26.891 : en:Chapter 7
01:09:41.552 : en:Chapter 8
01:19:18.587 : en:Chapter 9
01:30:34.512 : en:Chapter 10
01:40:33.569 : en:Chapter 11
01:48:43.058 : en:Chapter 12
http://i101.fastpic.ru/thumb/2018/0304/9b/48cecb201fef95f761d4bde52e43939b.jpeg http://i101.fastpic.ru/thumb/2018/0304/bc/f0f25e818dab8f70200ed5ce2bc18fbc.jpeg http://i101.fastpic.ru/thumb/2018/0304/b3/423db7e8524ad1ee9227267845db0ab3.jpeg http://i101.fastpic.ru/thumb/2018/0304/a3/25df5c25fd646c44cc442066373097a3.jpeg
Похожих раздач нет

Tiberiumsun69 | 2018-03-04 10:56:40
 
Инструкция с 5 вариантами просмотра HEVC на ТВ есть в нашей авторской группе в ВК.

Всем приятного просмотра.
  |

Страницы:  1 
Привет, гость
- Запомнить
Регистрация
Информация

Торрент трекер ExKinoRay.TV

Здесь вы можете скачать новые фильмы, сериалы, игры, музыку, софт и многое другое. Большая скорость скачивания на мультитрекерных раздачах. Всё абсолютно бесплатно.