Bee Gees - One For All Tour - Live in Australia 1989 | 2018 | HDRip -
  • 0
  • 0
  • 76
  • 0
  • 0
  • 1
1.45 GB (1,559,054,336)
2018-03-14 14:08:54 2018-03-14 14:09:27
  http://s018.radikal.ru/i507/1605/a4/ac035f69f65b.gif
, .
:
!

...
General
Complete name : C:\Users\User\Desktop\Bee Gees - One For All Tour\The.Bee.Gees-One.For.All.Tour.Live.in.Australia.1989(2018)XviD.HDRip-.avi
Format: AVI
Format/Info : Audio Video Interleave
File size : 1.45 GiB
Duration: 1 h 47 min
Overall bit rate: 1 942 kb/s
Writing application : VirtualDubMod 1.5.10.3 | www.virtualdub-fr.org || (build 2550/release)
Writing library : VirtualDubMod build 2550/release

Video
ID: 0
Format: MPEG-4 Visual
Format profile: Advanced Simple@L5
Format settings : BVOP2 / Custom Matrix
Format settings, BVOP : 2
Format settings, QPel : No
Format settings, GMC: No warppoints
Format settings, Matrix : Custom
Codec ID: XVID
Codec ID/Hint : XviD
Duration: 1 h 47 min
Bit rate: 1 549 kb/s
Width : 704 pixels
Height: 528 pixels
Display aspect ratio: 4:3
Frame rate: 23.976 (24000/1001) FPS
Original frame rate : 23.976 (23976/1000) FPS
Color space : YUV
Chroma subsampling: 4:2:0
Bit depth : 8 bits
Scan type : Progressive
Compression mode: Lossy
Bits/(Pixel*Frame): 0.174
Stream size : 1.16 GiB (80%)
Writing library : XviD 1.2.1 (UTC 2008-12-04)

Audio
ID: 1
Format: AC-3
Format/Info : Audio Coding 3
Format settings, Endianness : Big
Codec ID: 2000
Duration: 1 h 47 min
Bit rate mode : Constant
Bit rate: 384 kb/s
Channel(s): 6 channels
Channel positions : Front: L C R, Side: L R, LFE
Sampling rate : 48.0 kHz
Frame rate: 31.250 FPS (1536 SPF)
Bit depth : 16 bits
Compression mode: Lossy
Stream size : 294 MiB (20%)
Alignment : Split accross interleaves
Interleave, duration: 42ms (1.00 video frame)
Interleave, preload duratio : 500ms
Service kind: Complete Main

https://b.radikal.ru/b33/1803/1e/fe240c3637cdt.jpg https://d.radikal.ru/d09/1803/bd/f344c264a2a5t.jpg
https://d.radikal.ru/d05/1803/a7/4baf178d6f45t.jpg https://a.radikal.ru/a00/1803/f3/81c49c029150t.jpg
https://b.radikal.ru/b04/1803/7a/d041336e1ec9t.jpg https://b.radikal.ru/b39/1803/fc/2eb4173d571bt.jpg
01. Ordinary Lives
02. Giving Up The Ghost
03. To Love Somebody
04. I.ve Gotta Get A Message To You
05. One
06. Tokyo Nights
07. Words
08. Juliet
09. New York Mining Disaster 1941
10. Holiday
11. Too Much Heaven
12. Heartbreaker / Islands in The Stream
13. Run To Me
14. World
15. Spicks And Specks
16. Lonely Days
17. How Deep is Your Love
18. It's My Neighborhood
19. How Can You Mend A Broken Heart
20. House Of Shame
21. I Started A Joke
22. Massachusetts
23. Stayin Alive
24. Nights On Broadway
25. Jive Talkin
26. Band Jam
27. You Win Again
28. You Should Be Dancing


,

ExKinoRay.TV

, , , , , . . .