Страсти Христовы | The Passion of the Christ | 2004 | AUS Transfer | BDRip (720p) | 60 fps | MVO, DVO, AVO - R.G. HD-Films Одобрено администрацией

Участники
  • Раздают6
  • Качают1
  • Просмотров90
  • Скачали0
  • Комментариев1
  • Список файлов1
Залил раздачу
Поблагодарить
Характеристики
Вес10.98 GB (11,784,349,785)
Залит2018-03-29 17:40:31 Обновлено2018-04-01 10:56:46
Сетевая Нет
   R.G. HD-Films  http://i100.fastpic.ru/big/2018/0206/ed/485776c47797d4b3e8fecae9b99f1ced.gif
Чтобы скачать, необходимо авторизоваться или зарегистрироваться.
Статус: Одобрено администрацией
Хотите видеть детали Раздачи пройдите авторизацию или регистрацию!

Спасибо за понимание...
Авторская группа в ВК
http://i100.fastpic.ru/big/2018/0206/ed/485776c47797d4b3e8fecae9b99f1ced.gif

General
Unique ID : 47600334674843477616262043593093486895 (0x23CF7DB19B5226B6D2AFCF1885C1192F)
Complete name : D:\Torrents\Страсти Христовы BDRip 720p 60fps.mkv
Format : Matroska
Format version : Version 4 / Version 2
File size : 11.0 GiB
Duration : 2 h 6 min
Overall bit rate : 12.4 Mb/s
Movie name : The Passion Of The Christ (2004) by Tiberiumsun69
Encoded date : UTC 2018-03-29 05:26:51
Writing application : mkvmerge v20.0.0 ('I Am The Sun') 64-bit
Writing library : libebml v1.3.5 + libmatroska v1.4.8

Video
ID : 1
Format : AVC
Format/Info : Advanced Video Codec
Format profile : High@L4.1
Format settings : CABAC / 12 Ref Frames
Format settings, CABAC : Yes
Format settings, ReFrames : 12 frames
Codec ID : V_MPEG4/ISO/AVC
Duration : 2 h 6 min
Bit rate : 9 788 kb/s
Width : 1 280 pixels
Height : 536 pixels
Display aspect ratio : 2.40:1
Frame rate mode : Constant
Frame rate : 60.000 FPS
Color space : YUV
Chroma subsampling : 4:2:0
Bit depth : 8 bits
Scan type : Progressive
Bits/(Pixel*Frame) : 0.238
Stream size : 8.65 GiB (79%)
Writing library : x264 core 146 r2538 121396c
Encoding settings : cabac=1 / ref=12 / deblock=1:-2:-2 / analyse=0x3:0x133 / me=umh / subme=10 / psy=1 / psy_rd=1.00:0.00 / mixed_ref=1 / me_range=32 / chroma_me=1 / trellis=2 / 8x8dct=1 / cqm=0 / deadzone=21,11 / fast_pskip=0 / chroma_qp_offset=-2 / threads=12 / lookahead_threads=2 / sliced_threads=0 / nr=0 / decimate=1 / interlaced=0 / bluray_compat=0 / constrained_intra=0 / bframes=8 / b_pyramid=2 / b_adapt=2 / b_bias=0 / direct=3 / weightb=1 / open_gop=0 / weightp=2 / keyint=240 / keyint_min=24 / scenecut=40 / intra_refresh=0 / rc_lookahead=60 / rc=crf / mbtree=0 / crf=16.0 / qcomp=0.80 / qpmin=0 / qpmax=69 / qpstep=4 / vbv_maxrate=62500 / vbv_bufsize=78125 / crf_max=0.0 / nal_hrd=none / filler=0 / ip_ratio=1.40 / pb_ratio=1.30 / aq=1:1.00
Language : English
Default : Yes
Forced : No

Audio #1
ID : 2
Format : AC-3
Format/Info : Audio Coding 3
Codec ID : A_AC3
Duration : 2 h 6 min
Bit rate mode : Constant
Bit rate : 640 kb/s
Channel(s) : 6 channels
Channel positions : Front: L C R, Side: L R, LFE
Sampling rate : 48.0 kHz
Frame rate : 31.250 FPS (1536 SPF)
Bit depth : 16 bits
Compression mode : Lossy
Stream size : 579 MiB (5%)
Title : MVO
Language : Russian
Service kind : Complete Main
Default : Yes
Forced : No

Audio #2
ID : 3
Format : AC-3
Format/Info : Audio Coding 3
Codec ID : A_AC3
Duration : 2 h 6 min
Bit rate mode : Constant
Bit rate : 640 kb/s
Channel(s) : 6 channels
Channel positions : Front: L C R, Side: L R, LFE
Sampling rate : 48.0 kHz
Frame rate : 31.250 FPS (1536 SPF)
Bit depth : 16 bits
Compression mode : Lossy
Stream size : 579 MiB (5%)
Title : DVO
Language : Russian
Service kind : Complete Main
Default : No
Forced : No

Audio #3
ID : 4
Format : AC-3
Format/Info : Audio Coding 3
Codec ID : A_AC3
Duration : 2 h 6 min
Bit rate mode : Constant
Bit rate : 448 kb/s
Channel(s) : 6 channels
Channel positions : Front: L C R, Side: L R, LFE
Sampling rate : 48.0 kHz
Frame rate : 31.250 FPS (1536 SPF)
Bit depth : 16 bits
Compression mode : Lossy
Stream size : 405 MiB (4%)
Title : AVO (Якоб Беллман)
Language : Russian
Service kind : Complete Main
Default : No
Forced : No

Audio #4
ID : 5
Format : AC-3
Format/Info : Audio Coding 3
Codec ID : A_AC3
Duration : 2 h 6 min
Bit rate mode : Constant
Bit rate : 448 kb/s
Channel(s) : 6 channels
Channel positions : Front: L C R, Side: L R, LFE
Sampling rate : 48.0 kHz
Frame rate : 31.250 FPS (1536 SPF)
Bit depth : 16 bits
Compression mode : Lossy
Stream size : 405 MiB (4%)
Title : AVO (Юрий Живов)
Language : Russian
Service kind : Complete Main
Default : No
Forced : No

Audio #5
ID : 6
Format : AC-3
Format/Info : Audio Coding 3
Codec ID : A_AC3
Duration : 2 h 6 min
Bit rate mode : Constant
Bit rate : 448 kb/s
Channel(s) : 6 channels
Channel positions : Front: L C R, Side: L R, LFE
Sampling rate : 48.0 kHz
Frame rate : 31.250 FPS (1536 SPF)
Bit depth : 16 bits
Compression mode : Lossy
Stream size : 405 MiB (4%)
Title : Original
Service kind : Complete Main
Default : No
Forced : No

Text #1
ID : 7
Format : UTF-8
Codec ID : S_TEXT/UTF8
Codec ID/Info : UTF-8 Plain Text
Duration : 2 h 0 min
Bit rate : 26 b/s
Count of elements : 485
Stream size : 23.3 KiB (0%)
Title : Полные
Language : Russian
Default : No
Forced : No

Text #2
ID : 8
Format : UTF-8
Codec ID : S_TEXT/UTF8
Codec ID/Info : UTF-8 Plain Text
Duration : 1 h 51 min
Bit rate : 17 b/s
Count of elements : 519
Stream size : 13.9 KiB (0%)
Title : Полные
Language : English
Default : No
Forced : No

Menu
00:00:00.000 : :Chapter 01
00:15:03.444 : :Chapter 02
00:16:15.224 : :Chapter 03
00:36:57.256 : :Chapter 04
00:38:23.259 : :Chapter 05
00:53:28.455 : :Chapter 06
01:09:25.744 : :Chapter 07
01:14:05.983 : :Chapter 08
01:15:13.967 : :Chapter 09
01:17:33.774 : :Chapter 10
01:34:57.983 : :Chapter 11
01:43:17.733 : :Chapter 12
01:46:39.893 : :Chapter 13
01:55:51.611 : :Chapter 14
01:57:29.375 : :Chapter 15
01:58:57.088 : :Chapter 16
http://i101.fastpic.ru/thumb/2018/0329/b3/742aeed4a5bc4dc0766d64f3b4ed5bb3.jpeg http://i101.fastpic.ru/thumb/2018/0329/a5/1e073107d8b9844453ba2543aacca7a5.jpeg http://i101.fastpic.ru/thumb/2018/0329/4d/cd1000600dc3a3baef0e383b5035b04d.jpeg

Tiberiumsun69 | 2018-03-29 17:41:05
 
Всем приятного просмотра.
  |

Страницы:  1 
Привет, гость
Информация

Торрент трекер ExKinoRay.TV

Здесь вы можете скачать новые фильмы, сериалы, игры, музыку, софт и многое другое. Большая скорость скачивания на мультитрекерных раздачах. Всё абсолютно бесплатно.