Я, робот | I, Robot | 2004 | Open Matte | BDRip (720p) | 60 fps | Dub, MVO, DVO, AVO - R.G. HD-Films Одобрено администрацией

Участники
  • Раздают3
  • Качают0
  • Просмотров132
  • Скачали0
  • Комментариев1
  • Список файлов1
Залил раздачу
Поблагодарить
Никто
Характеристики
Вес15.27 GB (16,390,960,217)
Залит2018-03-30 19:07:45 Обновлено2018-04-01 10:57:52
Сетевая Нет
   R.G. HD-Films  http://i100.fastpic.ru/big/2018/0206/ed/485776c47797d4b3e8fecae9b99f1ced.gif
Чтобы скачать, необходимо авторизоваться или зарегистрироваться.
Статус: Одобрено администрацией
Хотите видеть детали Раздачи пройдите авторизацию или регистрацию!

Спасибо за понимание...
Авторская группа в ВК
http://i100.fastpic.ru/big/2018/0206/ed/485776c47797d4b3e8fecae9b99f1ced.gif

General
Unique ID                   : 143530625424619303306958076012116877021 (0x6BFAFE319727C362E6FDE9FDF1F49EDD)
Complete name               : D:\Torrents\Я Робот BDRip 720p 60fps.mkv
Format                      : Matroska
Format version              : Version 4 / Version 2
File size                   : 15.3 GiB
Duration                    : 1 h 54 min
Overall bit rate            : 19.0 Mb/s
Movie name                  : I, Robot (2004) by Tiberiumsun69
Encoded date                : UTC 2018-03-30 15:18:47
Writing application         : mkvmerge v20.0.0 ('I Am The Sun') 64-bit
Writing library             : libebml v1.3.5 + libmatroska v1.4.8

Video
ID                          : 1
Format                      : AVC
Format/Info                 : Advanced Video Codec
Format profile              : High@L4.1
Format settings             : CABAC / 9 Ref Frames
Format settings, CABAC      : Yes
Format settings, ReFrames   : 9 frames
Codec ID                    : V_MPEG4/ISO/AVC
Duration                    : 1 h 54 min
Bit rate                    : 14.1 Mb/s
Width                       : 1 280 pixels
Height                      : 720 pixels
Display aspect ratio        : 16:9
Frame rate mode             : Constant
Frame rate                  : 60.000 FPS
Color space                 : YUV
Chroma subsampling          : 4:2:0
Bit depth                   : 8 bits
Scan type                   : Progressive
Bits/(Pixel*Frame)          : 0.255
Stream size                 : 11.3 GiB (74%)
Writing library             : x264 core 146 r2538 121396c
Encoding settings           : cabac=1 / ref=9 / deblock=1:-2:-2 / analyse=0x3:0x133 / me=umh / subme=10 / psy=1 / psy_rd=1.00:0.00 / mixed_ref=1 / me_range=32 / chroma_me=1 / trellis=2 / 8x8dct=1 / cqm=0 / deadzone=21,11 / fast_pskip=0 / chroma_qp_offset=-2 / threads=12 / lookahead_threads=2 / sliced_threads=0 / nr=0 / decimate=1 / interlaced=0 / bluray_compat=0 / constrained_intra=0 / bframes=8 / b_pyramid=2 / b_adapt=2 / b_bias=0 / direct=3 / weightb=1 / open_gop=0 / weightp=2 / keyint=240 / keyint_min=24 / scenecut=40 / intra_refresh=0 / rc_lookahead=60 / rc=crf / mbtree=0 / crf=16.0 / qcomp=0.80 / qpmin=0 / qpmax=69 / qpstep=4 / vbv_maxrate=62500 / vbv_bufsize=78125 / crf_max=0.0 / nal_hrd=none / filler=0 / ip_ratio=1.40 / pb_ratio=1.30 / aq=1:1.00
Language                    : English
Default                     : Yes
Forced                      : No

Audio #1
ID                          : 2
Format                      : AC-3
Format/Info                 : Audio Coding 3
Codec ID                    : A_AC3
Duration                    : 1 h 54 min
Bit rate mode               : Constant
Bit rate                    : 640 kb/s
Channel(s)                  : 6 channels
Channel positions           : Front: L C R, Side: L R, LFE
Sampling rate               : 48.0 kHz
Frame rate                  : 31.250 FPS (1536 SPF)
Bit depth                   : 16 bits
Compression mode            : Lossy
Stream size                 : 525 MiB (3%)
Title                       : Dub | DD 5.1 @ 640 kbps - Blu-ray CEE
Language                    : Russian
Service kind                : Complete Main
Default                     : Yes
Forced                      : No

Audio #2
ID                          : 3
Format                      : AC-3
Format/Info                 : Audio Coding 3
Codec ID                    : A_AC3
Duration                    : 1 h 54 min
Bit rate mode               : Constant
Bit rate                    : 640 kb/s
Channel(s)                  : 6 channels
Channel positions           : Front: L C R, Side: L R, LFE
Sampling rate               : 48.0 kHz
Frame rate                  : 31.250 FPS (1536 SPF)
Bit depth                   : 16 bits
Compression mode            : Lossy
Stream size                 : 525 MiB (3%)
Title                       : MVO | DD 5.1 @ 640 kbps - Superbit
Language                    : Russian
Service kind                : Complete Main
Default                     : No
Forced                      : No

Audio #3
ID                          : 4
Format                      : AC-3
Format/Info                 : Audio Coding 3
Codec ID                    : A_AC3
Duration                    : 1 h 54 min
Bit rate mode               : Constant
Bit rate                    : 640 kb/s
Channel(s)                  : 6 channels
Channel positions           : Front: L C R, Side: L R, LFE
Sampling rate               : 48.0 kHz
Frame rate                  : 31.250 FPS (1536 SPF)
Bit depth                   : 16 bits
Compression mode            : Lossy
Stream size                 : 525 MiB (3%)
Title                       : DVO | DD 5.1 @ 640 kbps - Tycoon
Language                    : Russian
Service kind                : Complete Main
Default                     : No
Forced                      : No

Audio #4
ID                          : 5
Format                      : AC-3
Format/Info                 : Audio Coding 3
Codec ID                    : A_AC3
Duration                    : 1 h 54 min
Bit rate mode               : Constant
Bit rate                    : 640 kb/s
Channel(s)                  : 6 channels
Channel positions           : Front: L C R, Side: L R, LFE
Sampling rate               : 48.0 kHz
Frame rate                  : 31.250 FPS (1536 SPF)
Bit depth                   : 16 bits
Compression mode            : Lossy
Stream size                 : 525 MiB (3%)
Title                       : AVO | DD 5.1 @ 640 kbps - Yu.Zhivov
Language                    : Russian
Service kind                : Complete Main
Default                     : No
Forced                      : No

Audio #5
ID                          : 6
Format                      : AC-3
Format/Info                 : Audio Coding 3
Codec ID                    : A_AC3
Duration                    : 1 h 54 min
Bit rate mode               : Constant
Bit rate                    : 640 kb/s
Channel(s)                  : 6 channels
Channel positions           : Front: L C R, Side: L R, LFE
Sampling rate               : 48.0 kHz
Frame rate                  : 31.250 FPS (1536 SPF)
Bit depth                   : 16 bits
Compression mode            : Lossy
Stream size                 : 525 MiB (3%)
Title                       : AVO | DD 5.1 @ 640 kbps - E.Rudoy
Language                    : Russian
Service kind                : Complete Main
Default                     : No
Forced                      : No

Audio #6
ID                          : 7
Format                      : AC-3
Format/Info                 : Audio Coding 3
Codec ID                    : A_AC3
Duration                    : 1 h 54 min
Bit rate mode               : Constant
Bit rate                    : 640 kb/s
Channel(s)                  : 6 channels
Channel positions           : Front: L C R, Side: L R, LFE
Sampling rate               : 48.0 kHz
Frame rate                  : 31.250 FPS (1536 SPF)
Bit depth                   : 16 bits
Compression mode            : Lossy
Stream size                 : 525 MiB (3%)
Title                       : AVO | DD 5.1 @ 640 kbps - A.Gavrilov
Language                    : Russian
Service kind                : Complete Main
Default                     : No
Forced                      : No

Audio #7
ID                          : 8
Format                      : AC-3
Format/Info                 : Audio Coding 3
Codec ID                    : A_AC3
Duration                    : 1 h 54 min
Bit rate mode               : Constant
Bit rate                    : 448 kb/s
Channel(s)                  : 6 channels
Channel positions           : Front: L C R, Side: L R, LFE
Sampling rate               : 48.0 kHz
Frame rate                  : 31.250 FPS (1536 SPF)
Bit depth                   : 16 bits
Compression mode            : Lossy
Stream size                 : 368 MiB (2%)
Title                       : AVO | DD 5.1 @ 448 kbps - M.Chadov
Language                    : Russian
Service kind                : Complete Main
Default                     : No
Forced                      : No

Audio #8
ID                          : 9
Format                      : AC-3
Format/Info                 : Audio Coding 3
Codec ID                    : A_AC3
Duration                    : 1 h 54 min
Bit rate mode               : Constant
Bit rate                    : 640 kb/s
Channel(s)                  : 6 channels
Channel positions           : Front: L C R, Side: L R, LFE
Sampling rate               : 48.0 kHz
Frame rate                  : 31.250 FPS (1536 SPF)
Bit depth                   : 16 bits
Compression mode            : Lossy
Stream size                 : 525 MiB (3%)
Title                       : Original | DD 5.1 @ 640 kbps
Language                    : English
Service kind                : Complete Main
Default                     : No
Forced                      : No

Text #1
ID                          : 10
Format                      : UTF-8
Codec ID                    : S_TEXT/UTF8
Codec ID/Info               : UTF-8 Plain Text
Duration                    : 1 h 53 min
Bit rate                    : 91 b/s
Count of elements           : 1221
Stream size                 : 76.5 KiB (0%)
Title                       : v1
Language                    : Russian
Default                     : No
Forced                      : No

Text #2
ID                          : 11
Format                      : UTF-8
Codec ID                    : S_TEXT/UTF8
Codec ID/Info               : UTF-8 Plain Text
Duration                    : 1 h 43 min
Bit rate                    : 99 b/s
Count of elements           : 1106
Stream size                 : 75.5 KiB (0%)
Title                       : v2
Language                    : Russian
Default                     : No
Forced                      : No

Text #3
ID                          : 12
Format                      : UTF-8
Codec ID                    : S_TEXT/UTF8
Codec ID/Info               : UTF-8 Plain Text
Duration                    : 1 h 41 min
Bit rate                    : 57 b/s
Count of elements           : 1136
Stream size                 : 42.9 KiB (0%)
Title                       : Full
Language                    : English
Default                     : No
Forced                      : No

Text #4
ID                          : 13
Format                      : UTF-8
Codec ID                    : S_TEXT/UTF8
Codec ID/Info               : UTF-8 Plain Text
Duration                    : 1 h 42 min
Bit rate                    : 61 b/s
Count of elements           : 1233
Stream size                 : 46.1 KiB (0%)
Title                       : SDH
Language                    : English
Default                     : No
Forced                      : No

Text #5
ID                          : 14
Format                      : UTF-8
Codec ID                    : S_TEXT/UTF8
Codec ID/Info               : UTF-8 Plain Text
Duration                    : 1 h 42 min
Bit rate                    : 72 b/s
Count of elements           : 1233
Stream size                 : 54.4 KiB (0%)
Title                       : SDH-Colored
Language                    : English
Default                     : No
Forced                      : No

Menu
00:00:00.000                : 01)00:00:00:000
00:01:46.939                : 02)00:01:46:939
00:03:30.252                : 03)00:03:30:252
00:06:18.545                : 04)00:06:18:545
00:07:57.519                : 05)00:07:57:519
00:10:19.701                : 06)00:10:19:701
00:12:11.230                : 07)00:12:11:230
00:15:35.308                : 08)00:15:35:308
00:17:47.983                : 09)00:17:47:983
00:22:51.868                : 10)00:22:51:868
00:26:14.030                : 11)00:26:14:030
00:26:59.242                : 12)00:26:59:242
00:33:23.167                : 13)00:33:23:167
00:36:03.577                : 14)00:36:03:577
00:41:23.523                : 15)00:41:23:523
00:46:07.889                : 16)00:46:07:889
00:49:06.025                : 17)00:49:06:025
00:52:14.505                : 18)00:52:14:505
00:55:22.277                : 19)00:55:22:277
00:58:31.717                : 20)00:58:31:717
01:00:06.769                : 21)01:00:06:769
01:01:08.664                : 22)01:01:08:664
01:07:56.114                : 23)01:07:56:114
01:08:18.094                : 24)01:08:18:094
01:10:24.301                : 25)01:10:24:302
01:13:17.225                : 26)01:13:17:225
01:16:53.818                : 27)01:16:53:818
01:18:39.465                : 28)01:18:39:465
01:20:14.225                : 29)01:20:14:225
01:21:18.289                : 30)01:21:18:289
01:21:57.453                : 31)01:21:57:453
01:27:29.536                : 32)01:27:29:536
01:28:57.666                : 33)01:28:57:666
01:32:59.657                : 34)01:32:59:657
01:34:45.137                : 35)01:34:45:137
01:38:09.466                : 36)01:38:09:466
01:41:10.898                : 37)01:41:10:898
01:44:15.416                : 38)01:44:15:416
01:45:02.755                : 39)01:45:02:755
http://i101.fastpic.ru/thumb/2018/0330/90/59fab028c704d96e2692459c529fcd90.jpeg http://i101.fastpic.ru/thumb/2018/0330/2c/df8261dac9b1fd5eac48cb3ad385fa2c.jpeg http://i101.fastpic.ru/thumb/2018/0330/14/b20f20e5d317465e5a088893bc230714.jpeg http://i101.fastpic.ru/thumb/2018/0330/a2/d1d507130a2c3a2fc8939c35418154a2.jpeg

Tiberiumsun69 | 2018-03-30 19:08:20
 
Всем приятного просмотра.
  |

Страницы:  1 
Привет, гость
- Запомнить
Регистрация
Информация

Торрент трекер ExKinoRay.TV

Здесь вы можете скачать новые фильмы, сериалы, игры, музыку, софт и многое другое. Большая скорость скачивания на мультитрекерных раздачах. Всё абсолютно бесплатно.