Мумия | The Mummy | 2017 | BDRip (720p) | 60 fps | Dub (Лицензия), AVO - R.G. HD-Films Одобрено администрацией

Участники
  • Раздают6
  • Качают5
  • Просмотров148
  • Скачали1
  • Комментариев3
  • Список файлов1
Залил раздачу
Поблагодарить
Никто
Характеристики
Вес9.17 GB (9,842,426,939)
Залит2018-03-31 19:57:16 Обновлено2018-04-01 10:59:11
Сетевая Нет
   R.G. HD-Films  http://i100.fastpic.ru/big/2018/0206/ed/485776c47797d4b3e8fecae9b99f1ced.gif
Чтобы скачать, необходимо авторизоваться или зарегистрироваться.
Статус: Одобрено администрацией
Хотите видеть детали Раздачи пройдите авторизацию или регистрацию!

Спасибо за понимание...
Авторская группа в ВК
http://i100.fastpic.ru/big/2018/0206/ed/485776c47797d4b3e8fecae9b99f1ced.gif

General
Unique ID                   : 283542880058108499939314358950520774487 (0xD5505F50817BD81F441D9E99336D5F57)
Complete name               : D:TorrentsМумия 2017 BDRip 720p 60fps.mkv
Format                      : Matroska
Format version              : Version 4 / Version 2
File size                   : 9.17 GiB
Duration                    : 1 h 50 min
Overall bit rate            : 11.9 Mb/s
Movie name                  : Мумия (2017) by Tiberiumsun69
Encoded date                : UTC 2018-03-31 15:53:53
Writing application         : mkvmerge v20.0.0 ('I Am The Sun') 64-bit
Writing library             : libebml v1.3.5 + libmatroska v1.4.8

Video
ID                          : 1
Format                      : AVC
Format/Info                 : Advanced Video Codec
Format profile              : High@L4.1
Format settings             : CABAC / 12 Ref Frames
Format settings, CABAC      : Yes
Format settings, ReFrames   : 12 frames
Codec ID                    : V_MPEG4/ISO/AVC
Duration                    : 1 h 50 min
Bit rate                    : 8 714 kb/s
Width                       : 1 280 pixels
Height                      : 536 pixels
Display aspect ratio        : 2.40:1
Frame rate mode             : Constant
Frame rate                  : 60.000 FPS
Color space                 : YUV
Chroma subsampling          : 4:2:0
Bit depth                   : 8 bits
Scan type                   : Progressive
Bits/(Pixel*Frame)          : 0.212
Stream size                 : 6.70 GiB (73%)
Writing library             : x264 core 146 r2538 121396c
Encoding settings           : cabac=1 / ref=12 / deblock=1:-2:-2 / analyse=0x3:0x133 / me=umh / subme=10 / psy=1 / psy_rd=1.00:0.00 / mixed_ref=1 / me_range=32 / chroma_me=1 / trellis=2 / 8x8dct=1 / cqm=0 / deadzone=21,11 / fast_pskip=0 / chroma_qp_offset=-2 / threads=12 / lookahead_threads=2 / sliced_threads=0 / nr=0 / decimate=1 / interlaced=0 / bluray_compat=0 / constrained_intra=0 / bframes=8 / b_pyramid=2 / b_adapt=2 / b_bias=0 / direct=3 / weightb=1 / open_gop=0 / weightp=2 / keyint=250 / keyint_min=25 / scenecut=40 / intra_refresh=0 / rc_lookahead=60 / rc=crf / mbtree=0 / crf=17.0 / qcomp=0.80 / qpmin=0 / qpmax=69 / qpstep=4 / vbv_maxrate=62500 / vbv_bufsize=78125 / crf_max=0.0 / nal_hrd=none / filler=0 / ip_ratio=1.40 / pb_ratio=1.30 / aq=1:1.00
Language                    : English
Default                     : Yes
Forced                      : No

Audio #1
ID                          : 2
Format                      : AC-3
Format/Info                 : Audio Coding 3
Codec ID                    : A_AC3
Duration                    : 1 h 50 min
Bit rate mode               : Constant
Bit rate                    : 640 kb/s
Channel(s)                  : 6 channels
Channel positions           : Front: L C R, Side: L R, LFE
Sampling rate               : 48.0 kHz
Frame rate                  : 31.250 FPS (1536 SPF)
Bit depth                   : 16 bits
Compression mode            : Lossy
Stream size                 : 504 MiB (5%)
Title                       : Русский ас3 - Дубляж
Language                    : Russian
Service kind                : Complete Main
Default                     : Yes
Forced                      : No

Audio #2
ID                          : 3
Format                      : AC-3
Format/Info                 : Audio Coding 3
Codec ID                    : A_AC3
Duration                    : 1 h 50 min
Bit rate mode               : Constant
Bit rate                    : 640 kb/s
Channel(s)                  : 6 channels
Channel positions           : Front: L C R, Side: L R, LFE
Sampling rate               : 48.0 kHz
Frame rate                  : 31.250 FPS (1536 SPF)
Bit depth                   : 16 bits
Compression mode            : Lossy
Stream size                 : 504 MiB (5%)
Title                       : Русский ас3 -  АП (Дохалов)
Language                    : Russian
Service kind                : Complete Main
Default                     : No
Forced                      : No

Audio #3
ID                          : 4
Format                      : AC-3
Format/Info                 : Audio Coding 3
Codec ID                    : A_AC3
Duration                    : 1 h 50 min
Bit rate mode               : Constant
Bit rate                    : 640 kb/s
Channel(s)                  : 6 channels
Channel positions           : Front: L C R, Side: L R, LFE
Sampling rate               : 48.0 kHz
Frame rate                  : 31.250 FPS (1536 SPF)
Bit depth                   : 16 bits
Compression mode            : Lossy
Stream size                 : 504 MiB (5%)
Title                       : Русский ас3 -  АП (Живов)
Service kind                : Complete Main
Default                     : No
Forced                      : No

Audio #4
ID                          : 5
Format                      : AC-3
Format/Info                 : Audio Coding 3
Codec ID                    : A_AC3
Duration                    : 1 h 50 min
Bit rate mode               : Constant
Bit rate                    : 640 kb/s
Channel(s)                  : 6 channels
Channel positions           : Front: L C R, Side: L R, LFE
Sampling rate               : 48.0 kHz
Frame rate                  : 31.250 FPS (1536 SPF)
Bit depth                   : 16 bits
Compression mode            : Lossy
Stream size                 : 504 MiB (5%)
Title                       : Русский ас3 -  АП (Сербин)
Language                    : Russian
Service kind                : Complete Main
Default                     : No
Forced                      : No

Audio #5
ID                          : 6
Format                      : AC-3
Format/Info                 : Audio Coding 3
Codec ID                    : A_AC3
Duration                    : 1 h 50 min
Bit rate mode               : Constant
Bit rate                    : 640 kb/s
Channel(s)                  : 6 channels
Channel positions           : Front: L C R, Side: L R, LFE
Sampling rate               : 48.0 kHz
Frame rate                  : 31.250 FPS (1536 SPF)
Bit depth                   : 16 bits
Compression mode            : Lossy
Stream size                 : 504 MiB (5%)
Title                       : Английский ас3 - Оригинал
Language                    : English
Service kind                : Complete Main
Default                     : No
Forced                      : No

Text #1
ID                          : 7
Format                      : UTF-8
Codec ID                    : S_TEXT/UTF8
Codec ID/Info               : UTF-8 Plain Text
Duration                    : 1 h 49 min
Bit rate                    : 1 b/s
Count of elements           : 44
Stream size                 : 1.31 KiB (0%)
Title                       : Русские - Forced
Language                    : Russian
Default                     : Yes
Forced                      : No

Text #2
ID                          : 8
Format                      : UTF-8
Codec ID                    : S_TEXT/UTF8
Codec ID/Info               : UTF-8 Plain Text
Duration                    : 1 h 49 min
Bit rate                    : 50 b/s
Count of elements           : 1065
Stream size                 : 40.6 KiB (0%)
Title                       : Русские
Language                    : Russian
Default                     : No
Forced                      : No

Text #3
ID                          : 9
Format                      : UTF-8
Codec ID                    : S_TEXT/UTF8
Codec ID/Info               : UTF-8 Plain Text
Duration                    : 1 h 36 min
Bit rate                    : 41 b/s
Count of elements           : 1081
Stream size                 : 29.4 KiB (0%)
Title                       : Английские
Language                    : English
Default                     : No
Forced                      : No

Text #4
ID                          : 10
Format                      : UTF-8
Codec ID                    : S_TEXT/UTF8
Codec ID/Info               : UTF-8 Plain Text
Duration                    : 1 h 37 min
Bit rate                    : 49 b/s
Count of elements           : 1327
Stream size                 : 35.5 KiB (0%)
Title                       : Английские - SDH
Language                    : English
Default                     : No
Forced                      : No

Text #5
ID                          : 11
Format                      : UTF-8
Codec ID                    : S_TEXT/UTF8
Codec ID/Info               : UTF-8 Plain Text
Duration                    : 1 h 37 min
Bit rate                    : 73 b/s
Count of elements           : 1357
Stream size                 : 52.5 KiB (0%)
Title                       : Английские - SDH Colored
Language                    : English
Default                     : No
Forced                      : No

Menu
00:00:00.000                : en:00:00:00.000
00:08:18.707                : en:00:08:18.707
00:13:18.923                : en:00:13:18.923
00:19:31.462                : en:00:19:31.462
00:24:40.145                : en:00:24:40.145
00:28:54.107                : en:00:28:54.107
00:35:41.389                : en:00:35:41.389
00:39:36.040                : en:00:39:36.040
00:47:00.067                : en:00:47:00.067
00:50:57.638                : en:00:50:57.638
00:56:49.740                : en:00:56:49.740
01:00:43.849                : en:01:00:43.849
01:08:58.009                : en:01:08:58.009
01:16:03.851                : en:01:16:03.851
01:19:38.440                : en:01:19:38.440
01:23:16.408                : en:01:23:16.408
01:26:26.848                : en:01:26:26.848
01:33:34.943                : en:01:33:34.943
01:37:02.984                : en:01:37:02.984
01:39:47.982                : en:01:39:47.982
http://i101.fastpic.ru/thumb/2018/0331/e0/55ae50452c6b4dff253b03300c6a34e0.jpeg http://i101.fastpic.ru/thumb/2018/0331/56/904bbaed9a7406eff55872c69a567456.jpeg http://i101.fastpic.ru/thumb/2018/0331/eb/69930c09c17211344bba5160a39bc8eb.jpeg http://i101.fastpic.ru/thumb/2018/0331/06/1d1dc1d702d4d683929c8bc83a66ed06.jpeg

dumbia | 2018-03-31 20:56:51
 
  |

filbi1976 | 2018-03-31 20:37:08
 
А где инфо, можно ознакомиться?
  |

Tiberiumsun69 | 2018-03-31 19:57:42
 
Всем приятного просмотра.
  |

Страницы:  1 
Привет, гость
- Запомнить
Регистрация
Информация

Торрент трекер ExKinoRay.TV

Здесь вы можете скачать новые фильмы, сериалы, игры, музыку, софт и многое другое. Большая скорость скачивания на мультитрекерных раздачах. Всё абсолютно бесплатно.