Меч в камне | The Sword In The Stone | (1963) | BDRip 720p | 60 fps | Dub, MVO, DVO, AVO - R.G. HD-Films Одобрено администрацией

Участники
  • Раздают3
  • Качают0
  • Просмотров184
  • Скачали0
  • Комментариев1
  • Список файлов1
Залил раздачу
Поблагодарить
Никто
Характеристики
Вес5.89 GB (6,321,065,399)
Залит2018-04-04 17:52:31 Обновлено2018-07-24 10:43:46
Сетевая Нет
   R.G. HD-Films  http://i100.fastpic.ru/big/2018/0206/ed/485776c47797d4b3e8fecae9b99f1ced.gif
Чтобы скачать, необходимо авторизоваться или зарегистрироваться.
Статус: Одобрено администрацией
Хотите видеть детали Раздачи пройдите авторизацию или регистрацию!

Спасибо за понимание...
Аудио#1: AC3 / 2.0 / 48 kHz / 320 kbps / 16 bit | DUB
Аудио#2: AC3 / 2.0 / 48 kHz / 384 kbps / 16 bit | MVO - DVD Магия
Аудио#3: AC3 / 5.1 / 48 kHz / 448 kbps / 16 bit | AVO - А.Михалев
Аудио#4: AC3 / 5.1 / 48 kHz / 448 kbps / 16 bit | AVO - В.Дохалов
Аудио#5: AC3 / 2.0 / 48 kHz / 192 kbps / 16 bit | AVO - Ю.Живов
Аудио#6: AC3 / 2.0 / 48 kHz / 192 kbps / 16 bit | VO (Неизвестный)
Аудио#7: AC3 / 2.0 / 48 kHz / 192 kbps / 16 bit | MVO - Украинский (K1)
Аудио#8: AC3 / 5.1 / 48 kHz / 640 kbps / 16 bit | Original

Авторская группа в ВК
http://i100.fastpic.ru/big/2018/0206/ed/485776c47797d4b3e8fecae9b99f1ced.gif

General
Unique ID                   : 120282863146357097552914565385082290321 (0x5A7DA304DE0BA9625B91C70924F2C091)
Complete name               : A:Меч в Камне BDRip 720p 60fps.mkv
Format                      : Matroska
Format version              : Version 4 / Version 2
File size                   : 5.89 GiB
Duration                    : 1 h 19 min
Overall bit rate            : 10.6 Mb/s
Movie name                  : Меч в камне (1963) By Tiberiumsun69
Encoded date                : UTC 2018-04-04 11:44:47
Writing application         : mkvmerge v20.0.0 ('I Am The Sun') 64-bit
Writing library             : libebml v1.3.5 + libmatroska v1.4.8

Video
ID                          : 1
Format                      : AVC
Format/Info                 : Advanced Video Codec
Format profile              : High@L4.1
Format settings             : CABAC / 9 Ref Frames
Format settings, CABAC      : Yes
Format settings, ReFrames   : 9 frames
Codec ID                    : V_MPEG4/ISO/AVC
Duration                    : 1 h 19 min
Bit rate                    : 7 751 kb/s
Width                       : 1 264 pixels
Height                      : 720 pixels
Display aspect ratio        : 16:9
Frame rate mode             : Constant
Frame rate                  : 60.000 FPS
Color space                 : YUV
Chroma subsampling          : 4:2:0
Bit depth                   : 8 bits
Scan type                   : Progressive
Bits/(Pixel*Frame)          : 0.142
Stream size                 : 4.32 GiB (73%)
Writing library             : x264 core 146 r2538 121396c
Encoding settings           : cabac=1 / ref=9 / deblock=1:-2:-2 / analyse=0x3:0x133 / me=umh / subme=10 / psy=1 / psy_rd=1.00:0.00 / mixed_ref=1 / me_range=32 / chroma_me=1 / trellis=2 / 8x8dct=1 / cqm=0 / deadzone=21,11 / fast_pskip=0 / chroma_qp_offset=-2 / threads=12 / lookahead_threads=2 / sliced_threads=0 / nr=0 / decimate=1 / interlaced=0 / bluray_compat=0 / constrained_intra=0 / bframes=8 / b_pyramid=2 / b_adapt=2 / b_bias=0 / direct=3 / weightb=1 / open_gop=0 / weightp=2 / keyint=250 / keyint_min=25 / scenecut=40 / intra_refresh=0 / rc_lookahead=60 / rc=crf / mbtree=0 / crf=18.0 / qcomp=0.80 / qpmin=0 / qpmax=69 / qpstep=4 / vbv_maxrate=62500 / vbv_bufsize=78125 / crf_max=0.0 / nal_hrd=none / filler=0 / ip_ratio=1.40 / pb_ratio=1.30 / aq=1:1.00
Language                    : English
Default                     : Yes
Forced                      : No

Audio #1
ID                          : 2
Format                      : AC-3
Format/Info                 : Audio Coding 3
Codec ID                    : A_AC3
Duration                    : 1 h 19 min
Bit rate mode               : Constant
Bit rate                    : 320 kb/s
Channel(s)                  : 2 channels
Channel positions           : Front: L R
Sampling rate               : 48.0 kHz
Frame rate                  : 31.250 FPS (1536 SPF)
Bit depth                   : 16 bits
Compression mode            : Lossy
Stream size                 : 182 MiB (3%)
Title                       : AC3 2.0 320 kbps ( Дубляж)
Language                    : Russian
Service kind                : Complete Main
Default                     : Yes
Forced                      : No

Audio #2
ID                          : 3
Format                      : AC-3
Format/Info                 : Audio Coding 3
Codec ID                    : A_AC3
Duration                    : 1 h 19 min
Bit rate mode               : Constant
Bit rate                    : 384 kb/s
Channel(s)                  : 6 channels
Channel positions           : Front: L C R, Side: L R, LFE
Sampling rate               : 48.0 kHz
Frame rate                  : 31.250 FPS (1536 SPF)
Bit depth                   : 16 bits
Compression mode            : Lossy
Stream size                 : 219 MiB (4%)
Title                       : AC3 5.1 384 kbps ( MVO, DVD-Магия)
Language                    : Russian
Service kind                : Complete Main
Default                     : No
Forced                      : No

Audio #3
ID                          : 4
Format                      : AC-3
Format/Info                 : Audio Coding 3
Codec ID                    : A_AC3
Duration                    : 1 h 19 min
Bit rate mode               : Constant
Bit rate                    : 448 kb/s
Channel(s)                  : 6 channels
Channel positions           : Front: L C R, Side: L R, LFE
Sampling rate               : 48.0 kHz
Frame rate                  : 31.250 FPS (1536 SPF)
Bit depth                   : 16 bits
Compression mode            : Lossy
Stream size                 : 255 MiB (4%)
Title                       : AC3 5.1 448 kbps ( AVO, Михалев)
Language                    : Russian
Service kind                : Complete Main
Default                     : No
Forced                      : No

Audio #4
ID                          : 5
Format                      : AC-3
Format/Info                 : Audio Coding 3
Codec ID                    : A_AC3
Duration                    : 1 h 19 min
Bit rate mode               : Constant
Bit rate                    : 448 kb/s
Channel(s)                  : 6 channels
Channel positions           : Front: L C R, Side: L R, LFE
Sampling rate               : 48.0 kHz
Frame rate                  : 31.250 FPS (1536 SPF)
Bit depth                   : 16 bits
Compression mode            : Lossy
Stream size                 : 255 MiB (4%)
Title                       : AC3 5.1 448 kbps ( AVO, Дохалов)
Language                    : Russian
Service kind                : Complete Main
Default                     : No
Forced                      : No

Audio #5
ID                          : 6
Format                      : AC-3
Format/Info                 : Audio Coding 3
Codec ID                    : A_AC3
Duration                    : 1 h 19 min
Bit rate mode               : Constant
Bit rate                    : 192 kb/s
Channel(s)                  : 2 channels
Channel positions           : Front: L R
Sampling rate               : 48.0 kHz
Frame rate                  : 31.250 FPS (1536 SPF)
Bit depth                   : 16 bits
Compression mode            : Lossy
Stream size                 : 109 MiB (2%)
Title                       : AC3 2.0 192 kbps ( AVO, Живов)
Language                    : Russian
Service kind                : Complete Main
Default                     : No
Forced                      : No

Audio #6
ID                          : 7
Format                      : AC-3
Format/Info                 : Audio Coding 3
Codec ID                    : A_AC3
Duration                    : 1 h 19 min
Bit rate mode               : Constant
Bit rate                    : 192 kb/s
Channel(s)                  : 2 channels
Channel positions           : Front: L R
Sampling rate               : 48.0 kHz
Frame rate                  : 31.250 FPS (1536 SPF)
Bit depth                   : 16 bits
Compression mode            : Lossy
Stream size                 : 109 MiB (2%)
Title                       : AC3 2.0 192 kbps ( Неизвестный)
Language                    : Russian
Service kind                : Complete Main
Default                     : No
Forced                      : No

Audio #7
ID                          : 8
Format                      : AC-3
Format/Info                 : Audio Coding 3
Codec ID                    : A_AC3
Duration                    : 1 h 19 min
Bit rate mode               : Constant
Bit rate                    : 192 kb/s
Channel(s)                  : 2 channels
Channel positions           : Front: L R
Sampling rate               : 48.0 kHz
Frame rate                  : 31.250 FPS (1536 SPF)
Bit depth                   : 16 bits
Compression mode            : Lossy
Stream size                 : 109 MiB (2%)
Title                       : AC3 2.0 192 kbps ( MVO, K1)
Language                    : Ukrainian
Service kind                : Complete Main
Default                     : No
Forced                      : No

Audio #8
ID                          : 9
Format                      : AC-3
Format/Info                 : Audio Coding 3
Codec ID                    : A_AC3
Duration                    : 1 h 19 min
Bit rate mode               : Constant
Bit rate                    : 640 kb/s
Channel(s)                  : 6 channels
Channel positions           : Front: L C R, Side: L R, LFE
Sampling rate               : 48.0 kHz
Frame rate                  : 31.250 FPS (1536 SPF)
Bit depth                   : 16 bits
Compression mode            : Lossy
Stream size                 : 365 MiB (6%)
Title                       : AC3 5.1 640 kbps ( Original Blu-Ray CEE)
Language                    : English
Service kind                : Complete Main
Default                     : No
Forced                      : No

Text #1
ID                          : 10
Format                      : UTF-8
Codec ID                    : S_TEXT/UTF8
Codec ID/Info               : UTF-8 Plain Text
Duration                    : 1 h 19 min
Bit rate                    : 87 b/s
Count of elements           : 1104
Stream size                 : 50.7 KiB (0%)
Title                       : Full
Language                    : Russian
Default                     : No
Forced                      : No

Text #2
ID                          : 11
Format                      : UTF-8
Codec ID                    : S_TEXT/UTF8
Codec ID/Info               : UTF-8 Plain Text
Duration                    : 1 h 19 min
Bit rate                    : 91 b/s
Count of elements           : 1103
Stream size                 : 53.1 KiB (0%)
Title                       : Full
Language                    : Ukrainian
Default                     : No
Forced                      : No

Text #3
ID                          : 12
Format                      : UTF-8
Codec ID                    : S_TEXT/UTF8
Codec ID/Info               : UTF-8 Plain Text
Duration                    : 1 h 17 min
Bit rate                    : 62 b/s
Count of elements           : 1107
Stream size                 : 35.6 KiB (0%)
Title                       : Full
Language                    : English
Default                     : No
Forced                      : No

Menu
00:00:00.000                : en:
00:01:40.434                : en:
00:08:41.479                : en:
00:12:46.849                : en:
00:17:00.727                : en:
00:22:08.117                : en:
00:26:59.700                : en:
00:30:25.531                : en:
00:39:09.387                : en:
00:43:01.076                : en:
00:49:13.281                : en:
00:54:51.494                : en:
00:56:38.184                : en:
00:59:46.705                : en:
01:04:10.510                : en:
01:10:18.127                : en:
01:15:37.696                : en:
http://i102.fastpic.ru/thumb/2018/0404/ec/34cc877e9f8e48d499dbbd84a3782eec.jpeg http://i102.fastpic.ru/thumb/2018/0404/41/65bc51c137701c03cf7018b0796b2541.jpeg http://i102.fastpic.ru/thumb/2018/0404/34/2ad4502d2d7c42a51e6b0f699d492c34.jpeg [URL=http://fastpic.ru/view/102/2018/0404/62279990d4542ce06314722592cd80a2.png.html]http://i102.fastpic.ru/thumb/2018/0404/a2/62279990d4542ce06314722592cd80a2.jpeg

Tiberiumsun69 | 2018-04-04 17:53:00
 
Всем приятного просмотра.
  |

Страницы:  1 
Привет, гость
- Запомнить
Регистрация
Информация

Торрент трекер ExKinoRay.TV

Здесь вы можете скачать новые фильмы, сериалы, игры, музыку, софт и многое другое. Большая скорость скачивания на мультитрекерных раздачах. Всё абсолютно бесплатно.