Книга джунглей | The Jungle Book | (1967) | BDRip (720p) | 60 fps | Dub, MVO, AVO - R.G. HD-Films Одобрено администрацией

Участники
  • Раздают13
  • Качают1
  • Просмотров204
  • Скачали1
  • Комментариев0
  • Список файлов1
Залил раздачу
Поблагодарить
Никто
Характеристики
Вес4.49 GB (4,817,634,612)
Залит2018-04-06 16:36:16 Обновлено2018-07-24 08:50:04
Сетевая Да
   R.G. HD-Films  http://i100.fastpic.ru/big/2018/0206/ed/485776c47797d4b3e8fecae9b99f1ced.gif
Чтобы скачать, необходимо авторизоваться или зарегистрироваться.
Статус: Одобрено администрацией
Хотите видеть детали Раздачи пройдите авторизацию или регистрацию!

Спасибо за понимание...
Авторская группа в ВК
http://i100.fastpic.ru/big/2018/0206/ed/485776c47797d4b3e8fecae9b99f1ced.gif

General
Unique ID                   : 16531316813794780764235099518335528258 (0xC6FD0D8BD56EEB7FF1043252D312D42)
Complete name               : A:Книга Джунглей (1967) BDRip 720p 60fps.mkv
Format                      : Matroska
Format version              : Version 4 / Version 2
File size                   : 4.49 GiB
Duration                    : 1 h 18 min
Overall bit rate            : 8 187 kb/s
Movie name                  : Книга джунглей (1967) by Tiberiumsun69
Encoded date                : UTC 2018-04-06 12:31:29
Writing application         : mkvmerge v20.0.0 ('I Am The Sun') 64-bit
Writing library             : libebml v1.3.5 + libmatroska v1.4.8

Video
ID                          : 1
Format                      : AVC
Format/Info                 : Advanced Video Codec
Format profile              : High@L4.1
Format settings             : CABAC / 9 Ref Frames
Format settings, CABAC      : Yes
Format settings, ReFrames   : 9 frames
Codec ID                    : V_MPEG4/ISO/AVC
Duration                    : 1 h 18 min
Bit rate                    : 5 942 kb/s
Width                       : 1 264 pixels
Height                      : 720 pixels
Display aspect ratio        : 16:9
Frame rate mode             : Constant
Frame rate                  : 60.000 FPS
Color space                 : YUV
Chroma subsampling          : 4:2:0
Bit depth                   : 8 bits
Scan type                   : Progressive
Bits/(Pixel*Frame)          : 0.109
Stream size                 : 3.26 GiB (73%)
Writing library             : x264 core 146 r2538 121396c
Encoding settings           : cabac=1 / ref=9 / deblock=1:-2:-2 / analyse=0x3:0x133 / me=umh / subme=10 / psy=1 / psy_rd=1.00:0.00 / mixed_ref=1 / me_range=32 / chroma_me=1 / trellis=2 / 8x8dct=1 / cqm=0 / deadzone=21,11 / fast_pskip=0 / chroma_qp_offset=-2 / threads=12 / lookahead_threads=2 / sliced_threads=0 / nr=0 / decimate=1 / interlaced=0 / bluray_compat=0 / constrained_intra=0 / bframes=8 / b_pyramid=2 / b_adapt=2 / b_bias=0 / direct=3 / weightb=1 / open_gop=0 / weightp=2 / keyint=250 / keyint_min=25 / scenecut=40 / intra_refresh=0 / rc_lookahead=60 / rc=crf / mbtree=0 / crf=18.0 / qcomp=0.80 / qpmin=0 / qpmax=69 / qpstep=4 / vbv_maxrate=62500 / vbv_bufsize=78125 / crf_max=0.0 / nal_hrd=none / filler=0 / ip_ratio=1.40 / pb_ratio=1.30 / aq=1:1.00
Language                    : English
Default                     : Yes
Forced                      : No

Audio #1
ID                          : 2
Format                      : AC-3
Format/Info                 : Audio Coding 3
Codec ID                    : A_AC3
Duration                    : 1 h 18 min
Bit rate mode               : Constant
Bit rate                    : 640 kb/s
Channel(s)                  : 6 channels
Channel positions           : Front: L C R, Side: L R, LFE
Sampling rate               : 48.0 kHz
Frame rate                  : 31.250 FPS (1536 SPF)
Bit depth                   : 16 bits
Compression mode            : Lossy
Stream size                 : 359 MiB (8%)
Title                       : Дубляж, Blu-ray EUR
Language                    : Russian
Service kind                : Complete Main
Default                     : Yes
Forced                      : No

Audio #2
ID                          : 3
Format                      : AC-3
Format/Info                 : Audio Coding 3
Codec ID                    : A_AC3
Duration                    : 1 h 18 min
Bit rate mode               : Constant
Bit rate                    : 192 kb/s
Channel(s)                  : 2 channels
Channel positions           : Front: L R
Sampling rate               : 48.0 kHz
Frame rate                  : 31.250 FPS (1536 SPF)
Bit depth                   : 16 bits
Compression mode            : Lossy
Stream size                 : 108 MiB (2%)
Title                       : Многоголосый закадровый
Language                    : Russian
Service kind                : Complete Main
Default                     : No
Forced                      : No

Audio #3
ID                          : 4
Format                      : AC-3
Format/Info                 : Audio Coding 3
Codec ID                    : A_AC3
Duration                    : 1 h 18 min
Bit rate mode               : Constant
Bit rate                    : 448 kb/s
Channel(s)                  : 6 channels
Channel positions           : Front: L C R, Side: L R, LFE
Sampling rate               : 48.0 kHz
Frame rate                  : 31.250 FPS (1536 SPF)
Bit depth                   : 16 bits
Compression mode            : Lossy
Stream size                 : 251 MiB (5%)
Title                       : Одноголосый закадровый, А.Михалев
Language                    : Russian
Service kind                : Complete Main
Default                     : No
Forced                      : No

Audio #4
ID                          : 5
Format                      : AC-3
Format/Info                 : Audio Coding 3
Codec ID                    : A_AC3
Duration                    : 1 h 18 min
Bit rate mode               : Constant
Bit rate                    : 192 kb/s
Channel(s)                  : 2 channels
Channel positions           : Front: L R
Sampling rate               : 48.0 kHz
Frame rate                  : 31.250 FPS (1536 SPF)
Bit depth                   : 16 bits
Compression mode            : Lossy
Stream size                 : 108 MiB (2%)
Title                       : Одноголосый закадровый, Павел Прямостанов
Language                    : Russian
Service kind                : Complete Main
Default                     : No
Forced                      : No

Audio #5
ID                          : 6
Format                      : AC-3
Format/Info                 : Audio Coding 3
Codec ID                    : A_AC3
Duration                    : 1 h 18 min
Bit rate mode               : Constant
Bit rate                    : 128 kb/s
Channel(s)                  : 1 channel
Channel positions           : Front: C
Sampling rate               : 48.0 kHz
Frame rate                  : 31.250 FPS (1536 SPF)
Bit depth                   : 16 bits
Compression mode            : Lossy
Stream size                 : 71.8 MiB (2%)
Title                       : Одноголосый закадровый, Василий Горчаков
Language                    : Russian
Service kind                : Complete Main
Default                     : No
Forced                      : No

Audio #6
ID                          : 7
Format                      : AC-3
Format/Info                 : Audio Coding 3
Codec ID                    : A_AC3
Duration                    : 1 h 18 min
Bit rate mode               : Constant
Bit rate                    : 640 kb/s
Channel(s)                  : 6 channels
Channel positions           : Front: L C R, Side: L R, LFE
Sampling rate               : 48.0 kHz
Frame rate                  : 31.250 FPS (1536 SPF)
Bit depth                   : 16 bits
Compression mode            : Lossy
Stream size                 : 359 MiB (8%)
Title                       : Оригинал
Language                    : English
Service kind                : Complete Main
Default                     : No
Forced                      : No

Text #1
ID                          : 8
Format                      : UTF-8
Codec ID                    : S_TEXT/UTF8
Codec ID/Info               : UTF-8 Plain Text
Duration                    : 1 h 17 min
Bit rate                    : 97 b/s
Count of elements           : 1100
Stream size                 : 55.4 KiB (0%)
Title                       : Полные
Language                    : Russian
Default                     : No
Forced                      : No

Text #2
ID                          : 9
Format                      : UTF-8
Codec ID                    : S_TEXT/UTF8
Codec ID/Info               : UTF-8 Plain Text
Duration                    : 1 h 17 min
Bit rate                    : 93 b/s
Count of elements           : 1100
Stream size                 : 53.3 KiB (0%)
Title                       : Полные
Language                    : Ukrainian
Default                     : No
Forced                      : No

Text #3
ID                          : 10
Format                      : UTF-8
Codec ID                    : S_TEXT/UTF8
Codec ID/Info               : UTF-8 Plain Text
Duration                    : 1 h 15 min
Bit rate                    : 58 b/s
Count of elements           : 1082
Stream size                 : 31.9 KiB (0%)
Title                       : Полные
Language                    : English
Default                     : No
Forced                      : No

Text #4
ID                          : 11
Format                      : UTF-8
Codec ID                    : S_TEXT/UTF8
Codec ID/Info               : UTF-8 Plain Text
Duration                    : 1 h 15 min
Bit rate                    : 66 b/s
Count of elements           : 1268
Stream size                 : 36.4 KiB (0%)
Title                       : SDH
Language                    : English
Default                     : No
Forced                      : No

Menu
00:00:00.000                : en:Opening Credits
00:02:30.317                : en:The Man-Cub
00:04:31.938                : en:Adopted by Wolves
00:06:07.200                : en:The Wolf Pack Elders
00:09:42.040                : en:Kaa Drops in for a S-s-snack
00:13:04.701                : en:"Colonel Hathi's March"
00:14:57.563                : en:Inspection
00:21:05.973                : en:Mowgli Meets Baloo
00:24:15.663                : en:Baloo and Mowgli
00:25:14.638                : en:"The Bare Necessitites"
00:29:44.533                : en:Mowgli Is Kidnapped
00:33:46.900                : en:"I Wan'na Be Like You"
00:39:14.978                : en:Settling Down for the Night
00:43:47.500                : en:A Long Walk
00:47:12.621                : en:Shere Khan, the Hunter
00:52:51.043                : en:Mowgli on His Own
00:55:15.729                : en:"Trust in Me"
01:01:04.661                : en:The Vultures
01:04:20.231                : en:"That's What Friends Are For"
01:06:49.881                : en:Mowgli Confronts Shere Khan
01:07:39.639                : en:A Tiger By the Tail
01:10:15.795                : en:A Dark Moment
01:13:24.400                : en:"My Own Home"
01:16:52.358                : en:Happy Endings for All


Привет, гость
- Запомнить
Регистрация
Информация

Торрент трекер ExKinoRay.TV

Здесь вы можете скачать новые фильмы, сериалы, игры, музыку, софт и многое другое. Большая скорость скачивания на мультитрекерных раздачах. Всё абсолютно бесплатно.