Капкан (В ловушке)  (1 Сезон: 1-10 Серии из 10) | Ófærð  (Trapped) | 2015 | WEB-DLRip | DVO (RG.Paravozik) Одобрено администрацией

Участники
  • Раздают0
  • Качают0
  • Просмотров149
  • Скачали1
  • Комментариев1
  • Список файлов10
Залил раздачу
Поблагодарить
Характеристики
Вес5.84 GB (6,270,103,552)
Залит2018-05-01 19:47:50 Обновлено2018-05-01 23:33:31
Сетевая Нет
Чтобы скачать, необходимо авторизоваться или зарегистрироваться.
Статус: Одобрено администрацией
Хотите видеть детали Раздачи пройдите авторизацию или регистрацию!

Спасибо за понимание...
General
Complete name : /home/roma/Відео/Trapped/Trapped.s01e01.avi
Format : AVI
Format/Info : Audio Video Interleave
File size : 611 MiB
Duration : 52mn 16s
Overall bit rate : 1 634 Kbps
Writing application : VirtualDubMod 1.5.10.3 | www.virtualdub-fr.org || (build 2550/release)
Writing library : VirtualDubMod build 2550/release

Video
ID : 0
Format : MPEG-4 Visual
Format profile : Advanced Simple@L5
Format settings, BVOP : 1
Format settings, QPel : No
Format settings, GMC : No warppoints
Format settings, Matrix : Default (MPEG)
Codec ID : XVID
Codec ID/Hint : XviD
Duration : 52mn 16s
Bit rate : 1 497 Kbps
Width : 720 pixels
Height : 400 pixels
Display aspect ratio : 16:9
Frame rate : 25.000 fps
Color space : YUV
Chroma subsampling : 4:2:0
Bit depth : 8 bits
Scan type : Progressive
Compression mode : Lossy
Bits/(Pixel*Frame) : 0.208
Stream size : 559 MiB (92%)
Writing library : XviD 1.2.1 (UTC 2008-12-04)

Audio
ID : 1
Format : MPEG Audio
Format version : Version 1
Format profile : Layer 3
Mode : Joint stereo
Mode extension : MS Stereo
Codec ID : 55
Codec ID/Hint : MP3
Duration : 52mn 16s
Bit rate mode : Constant
Bit rate : 128 Kbps
Channel(s) : 2 channels
Sampling rate : 48.0 KHz
Compression mode : Lossy
Stream size : 47.9 MiB (8%)
Alignment : Aligned on interleaves
Interleave, duration : 40 ms (1.00 video frame)
Interleave, preload duration : 504 ms
Writing library : LAME3.99r
Encoding settings : -m j -V 4 -q 2 -lowpass 17 -b 128
     
Похожих раздач нет

Enigma | 2018-05-01 20:05:37
 
Спасибо за раздачу. Если она мультитрекерная, то можете в редактировании поставить птичку и тогда будет подключение сетевых пиров.
  |

Страницы:  1 
Привет, гость
- Запомнить
Регистрация
Информация

Торрент трекер ExKinoRay.TV

Здесь вы можете скачать новые фильмы, сериалы, игры, музыку, софт и многое другое. Большая скорость скачивания на мультитрекерных раздачах. Всё абсолютно бесплатно.