Артём Котовский - Анекдоты на Арбате | 2005 | VHSRip без модерации

Участники
  • Раздают2
  • Качают0
  • Просмотров176
  • Скачали2
  • Комментариев0
  • Список файлов1
Залил раздачу
Поблагодарить
Никто
Характеристики
Вес223.34 MB (234,189,111)
Залит2018-05-01 22:52:00 Обновлено2018-05-01 23:25:24
Сетевая Нет
Чтобы скачать, необходимо авторизоваться или зарегистрироваться.
Статус: Без модерации
Хотите видеть детали Раздачи пройдите авторизацию или регистрацию!

Спасибо за понимание...
General
Complete name : /home/roma/Відео/Лучшие анекдоты с Арбата - Артем Котовский [16+].mp4
Format : MPEG-4
Format profile : Base Media / Version 2
Codec ID : mp42 (isom/mp42)
File size : 223 MiB
Duration : 1 h 28 min
Overall bit rate mode : Variable
Overall bit rate : 352 kb/s
Encoded date : UTC 2015-08-23 03:33:05
Tagged date : UTC 2015-08-23 03:33:05
gsst : 0
gstd : 5319970

Video
ID : 1
Format : AVC
Format/Info : Advanced Video Codec
Format profile : Baseline@L2.1
Format settings : 1 Ref Frames
Format settings, CABAC : No
Format settings, RefFrames : 1 frame
Format settings, GOP : M=1, N=60
Codec ID : avc1
Codec ID/Info : Advanced Video Coding
Duration : 1 h 28 min
Bit rate : 278 kb/s
Maximum bit rate : 1 311 kb/s
Width : 480 pixels
Height : 360 pixels
Display aspect ratio : 4:3
Frame rate mode : Constant
Frame rate : 25.000 FPS
Color space : YUV
Chroma subsampling : 4:2:0
Bit depth : 8 bits
Scan type : Progressive
Bits/(Pixel*Frame) : 0.064
Stream size : 176 MiB (79%)
Tagged date : UTC 2015-08-23 03:33:41

Audio
ID : 2
Format : AAC
Format/Info : Advanced Audio Codec
Format profile : LC
Codec ID : mp4a-40-2
Duration : 1 h 28 min
Bit rate mode : Variable
Bit rate : 72.0 kb/s
Maximum bit rate : 75.9 kb/s
Channel(s) : 1 channel
Channel positions : Front: C
Sampling rate : 44.1 kHz
Frame rate : 43.066 FPS (1024 SPF)
Compression mode : Lossy
Stream size : 45.7 MiB (20%)
Title : IsoMedia File Produced by Google, 5-11-2011
Encoded date : UTC 2015-08-23 03:33:25
Tagged date : UTC 2015-08-23 03:33:41
     


Привет, гость
- Запомнить
Регистрация
Информация

Торрент трекер ExKinoRay.TV

Здесь вы можете скачать новые фильмы, сериалы, игры, музыку, софт и многое другое. Большая скорость скачивания на мультитрекерных раздачах. Всё абсолютно бесплатно.