Артём Котовский - Анекдоты на Арбате | 2001 | VHSRip без модерации

Участники
  • Раздают2
  • Качают0
  • Просмотров105
  • Скачали2
  • Комментариев0
  • Список файлов1
Залил раздачу
Поблагодарить
Никто
Характеристики
Вес211.63 MB (221,913,964)
Залит2018-05-01 23:06:03 Обновлено2018-05-01 23:23:46
Сетевая Нет
Чтобы скачать, необходимо авторизоваться или зарегистрироваться.
Статус: Без модерации
Хотите видеть детали Раздачи пройдите авторизацию или регистрацию!

Спасибо за понимание...
General
Complete name : /home/roma/Відео/Котовский (Анекдоты на Арбате 2001 год).mp4
Format : MPEG-4
Format profile : Base Media / Version 2
Codec ID : mp42 (isom/mp42)
File size : 212 MiB
Duration : 1 h 13 min
Overall bit rate mode : Variable
Overall bit rate : 402 kb/s
Encoded date : UTC 2015-04-04 14:53:12
Tagged date : UTC 2015-04-04 14:53:12
gsst : 0
gstd : 4417363

Video
ID : 1
Format : AVC
Format/Info : Advanced Video Codec
Format profile : Baseline@L2.1
Format settings : 1 Ref Frames
Format settings, CABAC : No
Format settings, RefFrames : 1 frame
Format settings, GOP : M=1, N=60
Codec ID : avc1
Codec ID/Info : Advanced Video Coding
Duration : 1 h 13 min
Bit rate : 304 kb/s
Maximum bit rate : 1 244 kb/s
Width : 480 pixels
Height : 360 pixels
Display aspect ratio : 4:3
Frame rate mode : Constant
Frame rate : 23.976 (24000/1001) FPS
Color space : YUV
Chroma subsampling : 4:2:0
Bit depth : 8 bits
Scan type : Progressive
Bits/(Pixel*Frame) : 0.073
Stream size : 160 MiB (76%)
Encoded date : UTC 1970-01-01 00:00:00
Tagged date : UTC 2015-04-04 14:53:49

Audio
ID : 2
Format : AAC
Format/Info : Advanced Audio Codec
Format profile : LC
Codec ID : mp4a-40-2
Duration : 1 h 13 min
Bit rate mode : Variable
Bit rate : 96.0 kb/s
Maximum bit rate : 103 kb/s
Channel(s) : 2 channels
Channel positions : Front: L R
Sampling rate : 44.1 kHz
Frame rate : 43.066 FPS (1024 SPF)
Compression mode : Lossy
Stream size : 50.5 MiB (24%)
Title : IsoMedia File Produced by Google, 5-11-2011
Encoded date : UTC 2015-04-04 14:53:29
Tagged date : UTC 2015-04-04 14:53:49
   


Привет, гость
- Запомнить
Регистрация
Информация

Торрент трекер ExKinoRay.TV

Здесь вы можете скачать новые фильмы, сериалы, игры, музыку, софт и многое другое. Большая скорость скачивания на мультитрекерных раздачах. Всё абсолютно бесплатно.