Сказки... Сказки... Сказки старого Арбата | 1982 | DVDRip (AVC) - KORSAR Одобрено администрацией

Участники
  • Раздают0
  • Качают0
  • Просмотров108
  • Скачали0
  • Комментариев0
  • Список файлов1
Залил раздачу
Поблагодарить
Характеристики
Вес1.53 GB (1,646,552,909)
Залит2018-08-06 20:35:29 Обновлено2018-08-06 20:39:35
Сетевая Нет
   https://a.radikal.ru/a20/1803/8d/0323a36ccadd.gif  https://b.radikal.ru/b07/1807/15/1b087e4956ea.png
Чтобы скачать, необходимо авторизоваться или зарегистрироваться.
Статус: Одобрено администрацией
Хотите видеть детали Раздачи пройдите авторизацию или регистрацию!

Спасибо за понимание...
Просьба отключить блокировщики рекламы на странице скриншотов по адресу: http://3.lostpic.net/, этим Вы поможете существованию проекта. Заранее спасибо!
[*]x264 [info]: frame I:821   Avg QP:15.30  size: 65306
[*]x264 [info]: frame P:34848 Avg QP:17.97  size: 22501
[*]x264 [info]: frame B:116736 Avg QP:20.95  size:  5664
[*]x264 [info]: consecutive B-frames:  2.7%  4.2%  8.3% 20.9% 18.4% 28.1%  8.0%  4.8%  2.2%  1.3%  0.5%  0.4%  0.1%[/list]Общее
Уникальный идентификатор                 : 208047901278444251519095480667551984386 (0x9C84917BB5A35871BA33F9F356F66B02)
Полное имя                               : D:\Сказки старого Арбата_1982-DVDRip-AVC_KORSAR.mkv
Формат                                   : Matroska
Версия формата                           : Version 2
Размер файла                             : 1,53 Гбайт
Продолжительность                        : 1 ч. 41 м.
Общий поток                              : 2161 Кбит/сек
Название фильма                          : Сказки старого Арбата_1982-DVDRip-AVC_KORSAR
Дата кодирования                         : UTC 2018-08-04 14:45:05
Программа кодирования                    : mkvmerge v5.8.0 ('No Sleep / Pillow') built on Sep  2 2012 15:37:04
Библиотека кодирования                   : libebml v1.2.3 + libmatroska v1.3.0

Видео
Идентификатор                            : 1
Формат                                   : AVC
Формат/Информация                        : Advanced Video Codec
Профиль формата                          : High@L4.1
Параметр CABAC формата                   : Да
Параметр RefFrames формата               : 15 кадров
Идентификатор кодека                     : V_MPEG4/ISO/AVC
Продолжительность                        : 1 ч. 41 м.
Битрейт                                  : 1926 Кбит/сек
Ширина                                   : 696 пикселей
Высота                                   : 568 пикселей
Соотношение сторон                       : 4:3
Соотношение сторон в оригинале           : 4:3
Режим частоты кадров                     : Постоянный
Частота кадров                           : 25,000 кадров/сек
Цветовое пространство                    : YUV
Субдискретизация насыщенности            : 4:2:0
Битовая глубина                          : 8 бит
Тип развёртки                            : Прогрессивная
Бит/(Пиксели*Кадры)                      : 0.195
Размер потока                            : 1,37 Гбайт (89%)
Библиотека кодирования                   : x264 core 152 r2851kMod ba24899
Настройки программы                      : cabac=1 / ref=15 / deblock=1:-2:-1 / analyse=0x3:0x133 / me=umh / subme=10 / psy=1 / fade_compensate=0.00 / psy_rd=1.05:0.10 / mixed_ref=1 / me_range=32 / chroma_me=1 / trellis=2 / 8x8dct=1 / cqm=0 / deadzone=21,11 / fast_pskip=1 / chroma_qp_offset=-3 / threads=12 / lookahead_threads=3 / sliced_threads=0 / nr=0 / decimate=1 / interlaced=0 / bluray_compat=0 / constrained_intra=0 / bframes=12 / b_pyramid=2 / b_adapt=2 / b_bias=0 / direct=1 / weightb=1 / open_gop=0 / weightp=2 / keyint=250 / keyint_min=25 / scenecut=40 / intra_refresh=0 / rc=crf / mbtree=0 / crf=17.7000 / qcomp=0.63 / qpmin=0 / qpmax=39 / qpstep=4 / ip_ratio=1.40 / pb_ratio=1.30 / aq=1:1.00
Язык                                     : English
Default                                  : Да
Forced                                   : Нет
Цветовой диапазон                        : Limited
Основные цвета                           : BT.601 PAL
Характеристики трансфера                 : BT.470 System B, BT.470 System G
Коэффициенты матрицы                     : BT.601

Аудио
Идентификатор                            : 2
Формат                                   : AC-3
Формат/Информация                        : Audio Coding 3
Параметр Endianness формата              : Big
Идентификатор кодека                     : A_AC3
Продолжительность                        : 1 ч. 41 м.
Вид битрейта                             : Постоянный
Битрейт                                  : 192 Кбит/сек
Каналы                                   : 2 канала
Расположение каналов                     : Front: L R
Частота                                  : 48,0 КГц
Частота кадров                           : 31,250 кадров/сек (1536 SPF)
Битовая глубина                          : 16 бит
Метод сжатия                             : С потерями
Размер потока                            : 140 Мбайт (9%)
Язык                                     : Russian
ServiceKind/String                       : Complete Main
Default                                  : Да
Forced                                   : Нет

Меню
00:00:00.000                             : en:Chapter 1
00:13:27.200                             : en:Chapter 2
00:24:21.440                             : en:Chapter 3
00:31:09.600                             : en:Chapter 4
00:39:41.440                             : en:Chapter 5
00:49:37.280                             : en:Chapter 6
01:02:15.040                             : en:Chapter 7
01:12:08.520                             : en:Chapter 8
01:19:36.160                             : en:Chapter 9
01:31:50.480                             : en:Chapter 10
http://img11.lostpic.net/2018/08/04/bd2b4365330d716a6aa5c8538f8b7c3d.th.png http://img11.lostpic.net/2018/08/04/c78516438550b6cb9a0c66d3c46608a0.th.png  http://img11.lostpic.net/2018/08/04/e9401cc7a185ccd6ce2229465c58e49f.th.png http://img11.lostpic.net/2018/08/04/13d3b85ec58e6d9a041170fe0960ddff.th.png


Привет, гость
- Запомнить
Регистрация
Информация

Торрент трекер ExKinoRay.TV

Здесь вы можете скачать новые фильмы, сериалы, игры, музыку, софт и многое другое. Большая скорость скачивания на мультитрекерных раздачах. Всё абсолютно бесплатно.