Берегись автомобиля (Цветная версия) | 1966 | BDRip (720p) - KORSAR Одобрено администрацией

Участники
  • Раздают5
  • Качают0
  • Просмотров81
  • Скачали2
  • Комментариев0
  • Список файлов1
Залил раздачу
Поблагодарить
Характеристики
Вес6.00 GB (6,446,157,218)
Залит2018-08-14 19:06:15 Обновлено2018-08-14 19:53:58
Сетевая Нет
   https://a.radikal.ru/a20/1803/8d/0323a36ccadd.gif  https://b.radikal.ru/b07/1807/15/1b087e4956ea.png
Чтобы скачать, необходимо авторизоваться или зарегистрироваться.
Статус: Одобрено администрацией
Хотите видеть детали Раздачи пройдите авторизацию или регистрацию!

Спасибо за понимание...
Просьба отключить блокировщики рекламы на странице скриншотов по адресу: http://3.lostpic.net/, этим Вы поможете существованию проекта. Заранее спасибо!
[list]
[*]x264 [info]: frame I:678   Avg QP:17.82  size:150098
[*]x264 [info]: frame P:25990 Avg QP:19.32  size: 88512
[*]x264 [info]: frame B:108748 Avg QP:21.43  size: 34265
[*]x264 [info]: consecutive B-frames:  0.8%  1.0%  3.7% 13.2% 18.6% 54.1%  5.2%  1.2%  1.2%  0.7%  0.3%[/list]Общее
Уникальный идентификатор                 : 251904530029810431238233239985398707742 (0xBD830C396ADD25B4A3A7FB6D8D73761E)
Полное имя                               : D:\Берегись автомобиля_1966-BDRip 720p_KORSAR.mkv
Формат                                   : Matroska
Версия формата                           : Version 2
Размер файла                             : 6,00 Гбайт
Продолжительность                        : 1 ч. 34 м.
Общий поток                              : 9131 Кбит/сек
Название фильма                          : Берегись автомобиля_1966-BDRip 720p_KORSAR
Дата кодирования                         : UTC 2018-08-13 00:26:55
Программа кодирования                    : mkvmerge v5.8.0 ('No Sleep / Pillow') built on Sep  2 2012 15:37:04
Библиотека кодирования                   : libebml v1.2.3 + libmatroska v1.3.0

Видео
Идентификатор                            : 1
Формат                                   : AVC
Формат/Информация                        : Advanced Video Codec
Профиль формата                          : High@L4.1
Параметр CABAC формата                   : Да
Параметр RefFrames формата               : 11 кадров
Идентификатор кодека                     : V_MPEG4/ISO/AVC
Продолжительность                        : 1 ч. 34 м.
Битрейт                                  : 8501 Кбит/сек
Ширина                                   : 986 пикселей
Высота                                   : 720 пикселей
Соотношение сторон                       : 4:3
Режим частоты кадров                     : Постоянный
Частота кадров                           : 23,976 (24000/1001) кадра/сек
Цветовое пространство                    : YUV
Субдискретизация насыщенности            : 4:2:0
Битовая глубина                          : 8 бит
Тип развёртки                            : Прогрессивная
Бит/(Пиксели*Кадры)                      : 0.499
Размер потока                            : 5,59 Гбайт (93%)
Библиотека кодирования                   : x264 core 152 r2851kMod ba24899
Настройки программы                      : cabac=1 / ref=11 / deblock=1:-2:-2 / analyse=0x3:0x113 / me=umh / subme=10 / psy=1 / fade_compensate=0.00 / psy_rd=0.95:0.10 / mixed_ref=1 / me_range=40 / chroma_me=1 / trellis=2 / 8x8dct=1 / cqm=0 / deadzone=21,11 / fast_pskip=1 / chroma_qp_offset=-3 / threads=12 / lookahead_threads=3 / sliced_threads=0 / nr=0 / decimate=1 / interlaced=0 / bluray_compat=0 / constrained_intra=0 / bframes=10 / b_pyramid=2 / b_adapt=2 / b_bias=0 / direct=1 / weightb=1 / open_gop=0 / weightp=2 / keyint=240 / keyint_min=23 / scenecut=40 / intra_refresh=0 / rc=crf / mbtree=0 / crf=17.5000 / qcomp=0.63 / qpmin=0 / qpmax=39 / qpstep=4 / ip_ratio=1.40 / pb_ratio=1.30 / aq=2:0.70
Язык                                     : English
Default                                  : Да
Forced                                   : Нет
Цветовой диапазон                        : Limited
Основные цвета                           : BT.709
Характеристики трансфера                 : BT.709
Коэффициенты матрицы                     : BT.709

Аудио
Идентификатор                            : 2
Формат                                   : AC-3
Формат/Информация                        : Audio Coding 3
Параметр Endianness формата              : Big
Идентификатор кодека                     : A_AC3
Продолжительность                        : 1 ч. 34 м.
Вид битрейта                             : Постоянный
Битрейт                                  : 448 Кбит/сек
Каналы                                   : 6 каналов
Расположение каналов                     : Front: L C R, Side: L R, LFE
Частота                                  : 48,0 КГц
Частота кадров                           : 31,250 кадров/сек (1536 SPF)
Битовая глубина                          : 16 бит
Метод сжатия                             : С потерями
Размер потока                            : 302 Мбайт (5%)
Язык                                     : Russian
ServiceKind/String                       : Complete Main
Default                                  : Да
Forced                                   : Нет

Текст #1
Идентификатор                            : 3
Формат                                   : UTF-8
Идентификатор кодека                     : S_TEXT/UTF8
Идентификатор кодека/Информация          : UTF-8 Plain Text
Заголовок                                : RUS
Язык                                     : Russian
Default                                  : Нет
Forced                                   : Нет

Текст #2
Идентификатор                            : 4
Формат                                   : UTF-8
Идентификатор кодека                     : S_TEXT/UTF8
Идентификатор кодека/Информация          : UTF-8 Plain Text
Заголовок                                : ENG
Язык                                     : English
Default                                  : Нет
Forced                                   : Нет

Меню
00:00:00.000                             : en:
00:04:06.037                             : en:
00:05:57.690                             : en:
00:10:53.611                             : en:
00:19:00.556                             : en:
00:27:49.250                             : en:
00:31:06.406                             : en:
00:38:47.783                             : en:
00:41:07.173                             : en:
00:45:49.830                             : en:
00:53:34.753                             : en:
00:57:29.571                             : en:
01:10:09.747                             : en:
01:20:03.381                             : en:
01:26:02.574                             : en:
01:28:09.575                             : en:
01:31:45.708                             : en:
http://img11.lostpic.net/2018/08/13/0f9e6619e2b1f40e69464c796cde302d.th.png http://img11.lostpic.net/2018/08/13/45b4f86695e92f59f9991001d31348e9.th.png http://img11.lostpic.net/2018/08/13/70d770a8249a8d2b89b9b49f4bb268b9.th.png http://img11.lostpic.net/2018/08/13/0e062c5fae39ae6f710070845bf25960.th.png


Привет, гость
- Запомнить
Регистрация
Информация

Торрент трекер ExKinoRay.TV

Здесь вы можете скачать новые фильмы, сериалы, игры, музыку, софт и многое другое. Большая скорость скачивания на мультитрекерных раздачах. Всё абсолютно бесплатно.