Афганский излом | 1991 | WEBRip (720p) - KORSAR Одобрено администрацией

Участники
  • Раздают2
  • Качают0
  • Просмотров151
  • Скачали3
  • Комментариев0
  • Список файлов1
Залил раздачу
Поблагодарить
Характеристики
Вес4.94 GB (5,308,473,898)
Залит2018-09-05 20:28:37 Обновлено2018-09-05 20:32:02
Сетевая Нет
   https://a.radikal.ru/a20/1803/8d/0323a36ccadd.gif  https://d.radikal.ru/d12/1808/fd/88a2e919f323.gif
Чтобы скачать, необходимо авторизоваться или зарегистрироваться.
Статус: Одобрено администрацией
Хотите видеть детали Раздачи пройдите авторизацию или регистрацию!

Спасибо за понимание...
Просьба отключить блокировщики рекламы на странице скриншотов по адресу: http://3.lostpic.net/, этим Вы поможете существованию проекта. Заранее спасибо!
[*]x264 [info]: frame I:1126  Avg QP:17.73  size:160916
[*]x264 [info]: frame P:49217 Avg QP:19.21  size: 70936
[*]x264 [info]: frame B:148322 Avg QP:21.79  size:  9732
[*]x264 [info]: consecutive B-frames:  2.6%  4.4% 10.1% 30.8% 23.8% 26.2%  1.4%  0.3%  0.1%  0.0%[/list]Общее
Уникальный идентификатор                 : 177971013714832139175879024673545861355 (0x85E3F86FB7062365A98E379565BD38EB)
Полное имя                               : D:\Афганский излом_1991-WEBRip-720p_KORSAR.mkv
Формат                                   : Matroska
Версия формата                           : Version 2
Размер файла                             : 4,94 Гбайт
Продолжительность                        : 2 ч. 12 м.
Общий поток                              : 5344 Кбит/сек
Название фильма                          : Афганский излом_1991-WEBRip-720p_KORSAR
Дата кодирования                         : UTC 2018-08-14 22:08:54
Программа кодирования                    : mkvmerge v5.8.0 ('No Sleep / Pillow') built on Sep  2 2012 15:37:04
Библиотека кодирования                   : libebml v1.2.3 + libmatroska v1.3.0

Видео
Идентификатор                            : 1
Формат                                   : AVC
Формат/Информация                        : Advanced Video Codec
Профиль формата                          : High@L4.1
Параметр CABAC формата                   : Да
Параметр RefFrames формата               : 11 кадров
Идентификатор кодека                     : V_MPEG4/ISO/AVC
Продолжительность                        : 2 ч. 12 м.
Битрейт                                  : 5046 Кбит/сек
Ширина                                   : 990 пикселей
Высота                                   : 720 пикселей
Соотношение сторон                       : 1,375
Режим частоты кадров                     : Постоянный
Частота кадров                           : 25,000 кадров/сек
Цветовое пространство                    : YUV
Субдискретизация насыщенности            : 4:2:0
Битовая глубина                          : 8 бит
Тип развёртки                            : Прогрессивная
Бит/(Пиксели*Кадры)                      : 0.283
Размер потока                            : 4,67 Гбайт (94%)
Библиотека кодирования                   : x264 core 152 r2851kMod ba24899
Настройки программы                      : cabac=1 / ref=11 / deblock=1:-2:-1 / analyse=0x3:0x113 / me=umh / subme=10 / psy=1 / fade_compensate=0.00 / psy_rd=1.03:0.10 / mixed_ref=1 / me_range=32 / chroma_me=1 / trellis=2 / 8x8dct=1 / cqm=0 / deadzone=21,11 / fast_pskip=1 / chroma_qp_offset=-3 / threads=12 / lookahead_threads=2 / sliced_threads=0 / nr=0 / decimate=1 / interlaced=0 / bluray_compat=0 / constrained_intra=0 / bframes=9 / b_pyramid=2 / b_adapt=2 / b_bias=0 / direct=1 / weightb=1 / open_gop=0 / weightp=2 / keyint=250 / keyint_min=25 / scenecut=40 / intra_refresh=0 / rc=crf / mbtree=0 / crf=17.8000 / qcomp=0.63 / qpmin=0 / qpmax=39 / qpstep=4 / ip_ratio=1.40 / pb_ratio=1.30 / aq=2:0.80
Язык                                     : English
Default                                  : Да
Forced                                   : Нет
Цветовой диапазон                        : Limited
Основные цвета                           : BT.709
Характеристики трансфера                 : BT.709
Коэффициенты матрицы                     : BT.709

Аудио
Идентификатор                            : 2
Формат                                   : AC-3
Формат/Информация                        : Audio Coding 3
Параметр Endianness формата              : Big
Идентификатор кодека                     : A_AC3
Продолжительность                        : 2 ч. 12 м.
Вид битрейта                             : Постоянный
Битрейт                                  : 192 Кбит/сек
Каналы                                   : 2 канала
Расположение каналов                     : Front: L R
Частота                                  : 48,0 КГц
Частота кадров                           : 31,250 кадров/сек (1536 SPF)
Битовая глубина                          : 16 бит
Метод сжатия                             : С потерями
Размер потока                            : 182 Мбайт (4%)
Язык                                     : Russian
ServiceKind/String                       : Complete Main
Default                                  : Да
Forced                                   : Нет

Меню
00:00:00.000                             : en:Chapter 1
00:00:01.200                             : en:Chapter 2
00:06:59.400                             : en:Chapter 3
00:13:59.400                             : en:Chapter 4
00:20:46.200                             : en:Chapter 5
00:27:37.200                             : en:Chapter 6
00:34:29.400                             : en:Chapter 7
00:40:08.400                             : en:Chapter 8
00:48:14.400                             : en:Chapter 9
00:54:31.800                             : en:Chapter 10
01:06:34.200                             : en:Chapter 11
01:13:31.200                             : en:Chapter 12
01:20:43.200                             : en:Chapter 13
01:27:39.000                             : en:Chapter 14
01:36:16.200                             : en:Chapter 15
01:42:12.600                             : en:Chapter 16
01:49:03.000                             : en:Chapter 17
01:55:51.000                             : en:Chapter 18
02:03:07.200                             : en:Chapter 19
https://img11.lostpic.net/2018/08/15/973255f463c70c37478e55b1b9fd175c.th.png  https://img11.lostpic.net/2018/08/15/75706c039b0af3feb51ec9a658aeb299.th.png  https://img11.lostpic.net/2018/08/15/2baf2ef9dabcbb75ddddb4cacc00e2da.th.png  https://img11.lostpic.net/2018/08/15/9d40765da123acdb3d506161cafb3d5c.th.png  https://img11.lostpic.net/2018/08/15/5fd4264a2765004296cea4765397af95.th.png  https://img11.lostpic.net/2018/08/15/3fc6e0168fda204c8374a18e0f9a4258.th.png  https://img11.lostpic.net/2018/08/15/4282930693408addd6d777e95a549451.th.png  https://img11.lostpic.net/2018/08/15/375641cf7e28ba9dc8ae1e7a294f50fa.th.png


Привет, гость
- Запомнить
Регистрация
Информация

Торрент трекер ExKinoRay.TV

Здесь вы можете скачать новые фильмы, сериалы, игры, музыку, софт и многое другое. Большая скорость скачивания на мультитрекерных раздачах. Всё абсолютно бесплатно.