За последней чертой | 1991 | WEBRip (720p) - KORSAR Одобрено администрацией

Участники
  • Раздают5
  • Качают0
  • Просмотров112
  • Скачали3
  • Комментариев0
  • Список файлов1
Залил раздачу
Поблагодарить
Характеристики
Вес5.35 GB (5,748,607,520)
Залит2018-09-05 20:46:38 Обновлено0000-00-00 00:00:00
Сетевая Нет
   https://a.radikal.ru/a20/1803/8d/0323a36ccadd.gif  https://d.radikal.ru/d12/1808/fd/88a2e919f323.gif
Чтобы скачать, необходимо авторизоваться или зарегистрироваться.
Статус: Одобрено администрацией
Хотите видеть детали Раздачи пройдите авторизацию или регистрацию!

Спасибо за понимание...
Просьба отключить блокировщики рекламы на странице скриншотов по адресу: http://3.lostpic.net/, этим Вы поможете существованию проекта. Заранее спасибо!
[*]x264 [info]: frame I:779   Avg QP:18.44  size:147845
[*]x264 [info]: frame P:37762 Avg QP:20.05  size: 75960
[*]x264 [info]: frame B:114757 Avg QP:22.29  size: 22799
[*]x264 [info]: consecutive B-frames:  0.9%  2.4%  3.8% 73.0%  7.3% 12.0%  0.5%  0.2%  0.0%  0.0%[/list]Общее
Уникальный идентификатор                 : 254783321045987135205014712523670286424 (0xBFAD7B9468AA58A59D83713C8F91F058)
Полное имя                               : D:\За последней чертой_1991-WEBRip 720p_KORSAR.mkv
Формат                                   : Matroska
Версия формата                           : Version 2
Размер файла                             : 5,35 Гбайт
Продолжительность                        : 1 ч. 42 м.
Общий поток                              : 7500 Кбит/сек
Название фильма                          : За последней чертой_1991-WEBRip 720p_KORSAR
Дата кодирования                         : UTC 2018-08-25 14:47:49
Программа кодирования                    : mkvmerge v5.8.0 ('No Sleep / Pillow') built on Sep  2 2012 15:37:04
Библиотека кодирования                   : libebml v1.2.3 + libmatroska v1.3.0

Видео
Идентификатор                            : 1
Формат                                   : AVC
Формат/Информация                        : Advanced Video Codec
Профиль формата                          : High@L4.1
Параметр CABAC формата                   : Да
Параметр RefFrames формата               : 12 кадров
Идентификатор кодека                     : V_MPEG4/ISO/AVC
Продолжительность                        : 1 ч. 42 м.
Битрейт                                  : 7159 Кбит/сек
Ширина                                   : 960 пикселей
Высота                                   : 720 пикселей
Соотношение сторон                       : 4:3
Режим частоты кадров                     : Постоянный
Частота кадров                           : 25,000 кадров/сек
Цветовое пространство                    : YUV
Субдискретизация насыщенности            : 4:2:0
Битовая глубина                          : 8 бит
Тип развёртки                            : Прогрессивная
Бит/(Пиксели*Кадры)                      : 0.414
Размер потока                            : 5,11 Гбайт (95%)
Библиотека кодирования                   : x264 core 152 r2851kMod ba24899
Настройки программы                      : cabac=1 / ref=12 / deblock=1:-2:-1 / analyse=0x3:0x113 / me=umh / subme=10 / psy=1 / fade_compensate=0.00 / psy_rd=1.05:0.10 / mixed_ref=1 / me_range=32 / chroma_me=1 / trellis=2 / 8x8dct=1 / cqm=0 / deadzone=21,11 / fast_pskip=1 / chroma_qp_offset=-3 / threads=12 / lookahead_threads=2 / sliced_threads=0 / nr=0 / decimate=1 / interlaced=0 / bluray_compat=0 / constrained_intra=0 / bframes=9 / b_pyramid=2 / b_adapt=2 / b_bias=0 / direct=1 / weightb=1 / open_gop=0 / weightp=2 / keyint=250 / keyint_min=25 / scenecut=40 / intra_refresh=0 / rc=crf / mbtree=0 / crf=18.0000 / qcomp=0.63 / qpmin=0 / qpmax=39 / qpstep=4 / ip_ratio=1.40 / pb_ratio=1.30 / aq=1:0.60
Язык                                     : English
Default                                  : Да
Forced                                   : Нет
Цветовой диапазон                        : Limited
Основные цвета                           : BT.709
Характеристики трансфера                 : BT.709
Коэффициенты матрицы                     : BT.709

Аудио
Идентификатор                            : 2
Формат                                   : AC-3
Формат/Информация                        : Audio Coding 3
Параметр Endianness формата              : Big
Идентификатор кодека                     : A_AC3
Продолжительность                        : 1 ч. 42 м.
Вид битрейта                             : Постоянный
Битрейт                                  : 192 Кбит/сек
Каналы                                   : 2 канала
Расположение каналов                     : Front: L R
Частота                                  : 48,0 КГц
Частота кадров                           : 31,250 кадров/сек (1536 SPF)
Битовая глубина                          : 16 бит
Метод сжатия                             : С потерями
Размер потока                            : 140 Мбайт (3%)
Язык                                     : Russian
ServiceKind/String                       : Complete Main
Default                                  : Да
Forced                                   : Нет

Меню
00:00:00.000                             : en:Chapter 1
00:06:31.640                             : en:Chapter 2
00:13:26.920                             : en:Chapter 3
00:23:01.840                             : en:Chapter 4
00:30:50.880                             : en:Chapter 5
00:38:50.080                             : en:Chapter 6
00:42:41.840                             : en:Chapter 7
00:52:49.280                             : en:Chapter 8
00:57:55.280                             : en:Chapter 9
01:06:19.920                             : en:Chapter 10
01:15:07.400                             : en:Chapter 11
01:22:49.480                             : en:Chapter 12
01:28:05.040                             : en:Chapter 13
01:34:24.160                             : en:Chapter 14
https://img11.lostpic.net/2018/08/25/635a920e5a6510497a46dd22541df5d3.th.png  https://img11.lostpic.net/2018/08/25/1addf38de2e127922f2da36323b6a580.th.png  https://img11.lostpic.net/2018/08/25/907f37b20d8881cb43b4bd18f60e7483.th.png  https://img11.lostpic.net/2018/08/25/01cff13fbc08e4903a5260eccb87924c.th.png  
Похожих раздач нет


Привет, гость
- Запомнить
Регистрация
Информация

Торрент трекер ExKinoRay.TV

Здесь вы можете скачать новые фильмы, сериалы, игры, музыку, софт и многое другое. Большая скорость скачивания на мультитрекерных раздачах. Всё абсолютно бесплатно.