Сладкий ноябрь | Sweet November | 2001 | WEB-DLRip (720p) - KORSAR Одобрено администрацией

Участники
  • Раздают0
  • Качают0
  • Просмотров78
  • Скачали1
  • Комментариев0
  • Список файлов1
Залил раздачу
Поблагодарить
Никто
Характеристики
Вес6.10 GB (6,552,264,540)
Залит2018-09-05 20:52:10 Обновлено0000-00-00 00:00:00
Сетевая Нет
   https://a.radikal.ru/a20/1803/8d/0323a36ccadd.gif  https://d.radikal.ru/d12/1808/fd/88a2e919f323.gif
Чтобы скачать, необходимо авторизоваться или зарегистрироваться.
Статус: Одобрено администрацией
Хотите видеть детали Раздачи пройдите авторизацию или регистрацию!

Спасибо за понимание...
Просьба отключить блокировщики рекламы на странице скриншотов по адресу: http://3.lostpic.net/, этим Вы поможете существованию проекта. Заранее спасибо!
[*]x264 [info]: frame I:1230  Avg QP:17.83  size:162791
[*]x264 [info]: frame P:33678 Avg QP:19.31  size: 74219
[*]x264 [info]: frame B:138240 Avg QP:21.66  size: 18659
[*]x264 [info]: consecutive B-frames:  1.0%  1.0%  3.3% 16.4% 21.1% 48.5%  5.8%  1.1%  0.7%  0.4%  0.4%  0.2%[/list]Общее
Уникальный идентификатор                 : 203565680299977358259133176363255858507 (0x992552ED557D11D4A349E0AC7744054B)
Полное имя                               : D:\Сладкий ноябрь_2001-WEB-DLRip 720p_KORSAR.mkv
Формат                                   : Matroska
Версия формата                           : Version 2
Размер файла                             : 6,10 Гбайт
Продолжительность                        : 2 ч. 0 м.
Общий поток                              : 7258 Кбит/сек
Название фильма                          : Сладкий ноябрь_2001-WEB-DLRip 720p_KORSAR
Дата кодирования                         : UTC 2018-08-29 10:27:54
Программа кодирования                    : mkvmerge v5.8.0 ('No Sleep / Pillow') built on Sep  2 2012 15:37:04
Библиотека кодирования                   : libebml v1.2.3 + libmatroska v1.3.0

Видео
Идентификатор                            : 1
Формат                                   : AVC
Формат/Информация                        : Advanced Video Codec
Профиль формата                          : High@L4.1
Параметр CABAC формата                   : Да
Параметр RefFrames формата               : 9 кадров
Идентификатор кодека                     : V_MPEG4/ISO/AVC
Продолжительность                        : 2 ч. 0 м.
Битрейт                                  : 5706 Кбит/сек
Ширина                                   : 1278 пикселей
Высота                                   : 720 пикселей
Соотношение сторон                       : 16:9
Режим частоты кадров                     : Постоянный
Частота кадров                           : 23,976 (24000/1001) кадра/сек
Цветовое пространство                    : YUV
Субдискретизация насыщенности            : 4:2:0
Битовая глубина                          : 8 бит
Тип развёртки                            : Прогрессивная
Бит/(Пиксели*Кадры)                      : 0.259
Размер потока                            : 4,80 Гбайт (79%)
Библиотека кодирования                   : x264 core 152 r2851kMod ba24899
Настройки программы                      : cabac=1 / ref=9 / deblock=1:-2:-2 / analyse=0x3:0x113 / me=umh / subme=10 / psy=1 / fade_compensate=0.00 / psy_rd=1.05:0.10 / mixed_ref=1 / me_range=32 / chroma_me=1 / trellis=2 / 8x8dct=1 / cqm=0 / deadzone=21,11 / fast_pskip=1 / chroma_qp_offset=-3 / threads=12 / lookahead_threads=3 / sliced_threads=0 / nr=0 / decimate=1 / interlaced=0 / bluray_compat=0 / constrained_intra=0 / bframes=11 / b_pyramid=2 / b_adapt=2 / b_bias=0 / direct=1 / weightb=1 / open_gop=0 / weightp=2 / keyint=240 / keyint_min=23 / scenecut=40 / intra_refresh=0 / rc=crf / mbtree=0 / crf=18.7000 / qcomp=0.63 / qpmin=0 / qpmax=39 / qpstep=4 / ip_ratio=1.40 / pb_ratio=1.30 / aq=1:0.80
Язык                                     : English
Default                                  : Да
Forced                                   : Нет
Цветовой диапазон                        : Limited
Основные цвета                           : BT.709
Характеристики трансфера                 : BT.709
Коэффициенты матрицы                     : BT.709

Аудио #1
Идентификатор                            : 2
Формат                                   : AC-3
Формат/Информация                        : Audio Coding 3
Параметр Endianness формата              : Big
Идентификатор кодека                     : A_AC3
Продолжительность                        : 2 ч. 0 м.
Вид битрейта                             : Постоянный
Битрейт                                  : 384 Кбит/сек
Каналы                                   : 6 каналов
Расположение каналов                     : Front: L C R, Side: L R, LFE
Частота                                  : 48,0 КГц
Частота кадров                           : 31,250 кадров/сек (1536 SPF)
Битовая глубина                          : 16 бит
Метод сжатия                             : С потерями
Размер потока                            : 331 Мбайт (5%)
Заголовок                                : Dub
Язык                                     : Russian
ServiceKind/String                       : Complete Main
Default                                  : Да
Forced                                   : Нет

Аудио #2
Идентификатор                            : 3
Формат                                   : AC-3
Формат/Информация                        : Audio Coding 3
Параметр Endianness формата              : Big
Идентификатор кодека                     : A_AC3
Продолжительность                        : 2 ч. 0 м.
Вид битрейта                             : Постоянный
Битрейт                                  : 192 Кбит/сек
Каналы                                   : 2 канала
Расположение каналов                     : Front: L R
Частота                                  : 48,0 КГц
Частота кадров                           : 31,250 кадров/сек (1536 SPF)
Битовая глубина                          : 16 бит
Метод сжатия                             : С потерями
Размер потока                            : 165 Мбайт (3%)
Заголовок                                : MVO
Язык                                     : Russian
ServiceKind/String                       : Complete Main
Default                                  : Нет
Forced                                   : Нет

Аудио #3
Идентификатор                            : 4
Формат                                   : AC-3
Формат/Информация                        : Audio Coding 3
Параметр Endianness формата              : Big
Идентификатор кодека                     : A_AC3
Продолжительность                        : 2 ч. 0 м.
Вид битрейта                             : Постоянный
Битрейт                                  : 192 Кбит/сек
Каналы                                   : 2 канала
Расположение каналов                     : Front: L R
Частота                                  : 48,0 КГц
Частота кадров                           : 31,250 кадров/сек (1536 SPF)
Битовая глубина                          : 16 бит
Метод сжатия                             : С потерями
Размер потока                            : 165 Мбайт (3%)
Заголовок                                : AVO [Дольский]
Язык                                     : Russian
ServiceKind/String                       : Complete Main
Default                                  : Нет
Forced                                   : Нет

Аудио #4
Идентификатор                            : 5
Формат                                   : E-AC-3
Формат/Информация                        : Enhanced Audio Coding 3
Параметр Endianness формата              : Big
Идентификатор кодека                     : A_EAC3
Продолжительность                        : 2 ч. 0 м.
Вид битрейта                             : Постоянный
Битрейт                                  : 640 Кбит/сек
Каналы                                   : 6 каналов
Расположение каналов                     : Front: L C R, Side: L R, LFE
Частота                                  : 48,0 КГц
Частота кадров                           : 187,500 кадров/сек (256 SPF)
Метод сжатия                             : С потерями
Размер потока                            : 551 Мбайт (9%)
Язык                                     : English
ServiceKind/String                       : Complete Main
Default                                  : Нет
Forced                                   : Нет

Текст #1
Идентификатор                            : 6
Формат                                   : UTF-8
Идентификатор кодека                     : S_TEXT/UTF8
Идентификатор кодека/Информация          : UTF-8 Plain Text
Язык                                     : Russian
Default                                  : Нет
Forced                                   : Нет

Текст #2
Идентификатор                            : 7
Формат                                   : UTF-8
Идентификатор кодека                     : S_TEXT/UTF8
Идентификатор кодека/Информация          : UTF-8 Plain Text
Язык                                     : English
Default                                  : Нет
Forced                                   : Нет

Меню
00:00:00.000                             : en:Later for His Life
00:03:09.434                             : en:No Time for This
00:05:34.434                             : enisqualified at the DMV
00:08:42.934                             : en:Not for Sale
00:10:47.101                             : en:Ride Needed
00:13:49.301                             : en:Her Heinous Crime
00:16:35.102                             : en:Sara's Proposal
00:21:34.102                             : en:Overly Hot Dog
00:24:48.602                             : enoubly Dumped
00:26:40.602                             : en:Walking Wounded
00:30:14.436                             : en:Make a Sale
00:35:23.936                             : en:Good Morning, Chaz
00:40:02.770                             : en:All His
00:43:04.437                             : en:A Day Out
00:47:20.305                             : en:You'll Think of Me
00:50:56.805                             : en:Rigged Race
00:55:51.773                             : en:Secret Dream
00:58:32.641                             : en:Just a House
01:02:45.609                             : en:Invited Out
01:05:45.609                             : en:Sequinned Sensation
01:08:18.109                             : en:Secrets Out
01:14:44.776                             : en:Blowing a Big Deal
01:20:39.443                             : en:The Better Offer
01:24:11.610                             : en:A Sunday Dad
01:25:46.444                             : en:In Love and in Crisis
01:29:55.444                             : en:Coming Home
01:35:12.611                             : en:Bigger Best Friend
01:36:49.978                             : en:Okay to Break the Rules
01:40:39.779                             : en:Early Christmas
01:45:40.279                             : en:All I Know
01:48:04.147                             : en:Remember Me
01:54:09.814                             : en:End Credits
https://img11.lostpic.net/2018/08/29/80295721ccda788c282f0b6a5553b082.th.png  https://img11.lostpic.net/2018/08/29/da730abe0525a1ade401ba2e7247a8fa.th.png  https://img11.lostpic.net/2018/08/29/a7ffc434355bec62772efbb170d62825.th.png  https://img11.lostpic.net/2018/08/29/6d24bbc017892e4e679900a179777231.th.png  https://img11.lostpic.net/2018/08/29/b9021fda272542a1aa9ad75f0d23391a.th.png  https://img11.lostpic.net/2018/08/29/f290e81aca467598d9931fe3cd9b5c88.th.png  https://img11.lostpic.net/2018/08/29/f07e042e8bb27aa72c5849e1c43c0e66.th.png  https://img11.lostpic.net/2018/08/29/10b3e268cb24f93c6be490bc4dedd6d5.th.png  https://img11.lostpic.net/2018/08/29/908e29787b34b4fce6ab22a0ab5e089c.th.png  https://img11.lostpic.net/2018/08/29/1dbc4ef8416b8329a8ef5be8de74e6df.th.png  https://img11.lostpic.net/2018/08/29/694fc710e189303bbd71d6b67cb19a46.th.png  https://img11.lostpic.net/2018/08/29/ea5d0461b5f4ba1cb5bcb8fe1d6308a0.th.png


Привет, гость
- Запомнить
Регистрация
Информация

Торрент трекер ExKinoRay.TV

Здесь вы можете скачать новые фильмы, сериалы, игры, музыку, софт и многое другое. Большая скорость скачивания на мультитрекерных раздачах. Всё абсолютно бесплатно.