Судьба человека | 1959 | WEBRip (720p) - KORSAR Одобрено администрацией

Участники
  • Раздают20
  • Качают1
  • Просмотров84
  • Скачали3
  • Комментариев0
  • Список файлов1
Залил раздачу
Поблагодарить
Характеристики
Вес5.89 GB (6,325,355,626)
Залит2019-05-10 16:31:41 Обновлено2019-05-10 16:33:26
Сетевая Да
  https://d.radikal.ru/d12/1808/fd/88a2e919f323.gif
Чтобы скачать, необходимо авторизоваться или зарегистрироваться.
Статус: Одобрено администрацией
Хотите видеть детали Раздачи пройдите авторизацию или регистрацию!

Спасибо за понимание...
Просьба отключить блокировщики рекламы на странице скриншотов по адресу: http://3.lostpic.net/, этим Вы поможете существованию проекта. Заранее спасибо!

[*]x264 [info]: frame I:739   Avg QP:18.01  size:121001
[*]x264 [info]: frame P:32657 Avg QP:19.76  size: 73830
[*]x264 [info]: frame B:112210 Avg QP:21.57  size: 30439
[*]x264 [info]: consecutive B-frames:  1.9%  3.3%  7.6% 21.7% 23.4% 34.2%  4.5%  0.9%  0.9%  1.3%  0.3%  0.0%
Общее
Уникальный идентификатор                 : 175114414868977229880137767119798311017 (0x83BDCF3D4AE99A3E9AD9DAA44B2E9869)
Полное имя                               : D:\Судьба человека_1959-WEBRip 720p_KORSAR.mkv
Формат                                   : Matroska
Версия формата                           : Version 2
Размер файла                             : 5,89 Гбайт
Продолжительность                        : 1 ч. 37 м.
Общий поток                              : 8688 Кбит/сек
Название фильма                          : Судьба человека_1959-WEBRip 720p_KORSAR
Дата кодирования                         : UTC 2019-05-09 18:04:50
Программа кодирования                    : mkvmerge v5.8.0 ('No Sleep / Pillow') built on Sep  2 2012 15:37:04
Библиотека кодирования                   : libebml v1.2.3 + libmatroska v1.3.0

Видео
Идентификатор                            : 1
Формат                                   : AVC
Формат/Информация                        : Advanced Video Codec
Профиль формата                          : High@L4.1
Параметр CABAC формата                   : Да
Параметр ReFrames формата                : 11 кадров
Идентификатор кодека                     : V_MPEG4/ISO/AVC
Продолжительность                        : 1 ч. 37 м.
Битрейт                                  : 7955 Кбит/сек
Ширина                                   : 996 пикселей
Высота                                   : 720 пикселей
Соотношение сторон                       : 1,383
Режим частоты кадров                     : Постоянный
Частота кадров                           : 25,000 кадров/сек
Цветовое пространство                    : YUV
Субдискретизация насыщенности            : 4:2:0
Битовая глубина                          : 8 бит
Тип развёртки                            : Прогрессивная
Бит/(Пиксели*Кадры)                      : 0.444
Размер потока                            : 5,39 Гбайт (92%)
Библиотека кодирования                   : x264 core 152 r2851kMod ba24899
Настройки программы                      : cabac=1 / ref=11 / deblock=1:-2:-2 / analyse=0x3:0x113 / me=umh / subme=10 / psy=1 / fade_compensate=0.00 / psy_rd=1.05:0.10 / mixed_ref=1 / me_range=40 / chroma_me=1 / trellis=2 / 8x8dct=1 / cqm=0 / deadzone=21,11 / fast_pskip=1 / chroma_qp_offset=-3 / threads=12 / lookahead_threads=3 / sliced_threads=0 / nr=0 / decimate=1 / interlaced=0 / bluray_compat=0 / constrained_intra=0 / bframes=11 / b_pyramid=2 / b_adapt=2 / b_bias=0 / direct=1 / weightb=1 / open_gop=0 / weightp=2 / keyint=250 / keyint_min=25 / scenecut=40 / intra_refresh=0 / rc=crf / mbtree=0 / crf=17.3000 / qcomp=0.63 / qpmin=0 / qpmax=30 / qpstep=4 / ip_ratio=1.40 / pb_ratio=1.30 / aq=1:0.80
Язык                                     : English
Default                                  : Да
Forced                                   : Нет
Основные цвета                           : BT.709
Характеристики трансфера                 : BT.709
Коэффициенты матрицы                     : BT.709

Аудио #1
Идентификатор                            : 2
Формат                                   : AC-3
Формат/Информация                        : Audio Coding 3
Расширение режима                        : CM (complete main)
Параметр Endianness формата              : Big
Идентификатор кодека                     : A_AC3
Продолжительность                        : 1 ч. 37 м.
Вид битрейта                             : Постоянный
Битрейт                                  : 448 Кбит/сек
Каналы                                   : 6 каналов
Расположение каналов                     : Front: L C R, Side: L R, LFE
Частота                                  : 48,0 КГц
Битовая глубина                          : 16 бит
Метод сжатия                             : С потерями
Размер потока                            : 311 Мбайт (5%)
Язык                                     : Russian
Default                                  : Да
Forced                                   : Нет

Аудио #2
Идентификатор                            : 3
Формат                                   : AC-3
Формат/Информация                        : Audio Coding 3
Расширение режима                        : CM (complete main)
Параметр Endianness формата              : Big
Идентификатор кодека                     : A_AC3
Продолжительность                        : 1 ч. 37 м.
Вид битрейта                             : Постоянный
Битрейт                                  : 112 Кбит/сек
Каналы                                   : 1 канал
Расположение каналов                     : Front: C
Частота                                  : 48,0 КГц
Битовая глубина                          : 16 бит
Метод сжатия                             : С потерями
Размер потока                            : 77,8 Мбайт (1%)
Язык                                     : Russian
Default                                  : Нет
Forced                                   : Нет


О исходнике. За основу взят исходник с кинопоиска, качество картинки было улучшено с помощью нейронных сетей и фирменной технологии DeepHD, это не реставрация плёнки но улучшения есть, желающие могут посмотреть ролик.

https://www.youtube.com/watch?v=ainlhiNn0Yk
Спасибо GoldDust за работу со звуком!
http://img14.lostpic.net/2019/05/09/990efd951e84fe739383bd7c02c99582.th.png  http://img14.lostpic.net/2019/05/09/21e61be0781d12e70a064adfadee0056.th.png  http://img14.lostpic.net/2019/05/09/4384874599293953aefdd6343c0b80a7.th.png  http://img14.lostpic.net/2019/05/09/73af76fd53a32cbcda0172cec86f457a.th.png  
http://korsar.tv/images/Banner-Korsar.gif http://korsar.tv/img/VKontakte.png


Привет, гость
- Запомнить
Регистрация
Информация

Торрент трекер ExKinoRay.TV

Здесь вы можете скачать новые фильмы, сериалы, игры, музыку, софт и многое другое. Большая скорость скачивания на мультитрекерных раздачах. Всё абсолютно бесплатно.