Мне двадцать лет | 1964 | WEBRip (720p) - KORSAR Одобрено администрацией

Участники
  • Раздают3
  • Качают0
  • Просмотров94
  • Скачали1
  • Комментариев0
  • Список файлов1
Залил раздачу
Поблагодарить
Характеристики
Вес5.85 GB (6,286,496,566)
Залит2019-05-12 07:52:17 Обновлено2019-05-12 08:02:57
Сетевая Нет
  https://d.radikal.ru/d12/1808/fd/88a2e919f323.gif
Чтобы скачать, необходимо авторизоваться или зарегистрироваться.
Статус: Одобрено администрацией
Хотите видеть детали Раздачи пройдите авторизацию или регистрацию!

Спасибо за понимание...
Просьба отключить блокировщики рекламы на странице скриншотов по адресу: http://3.lostpic.net/, этим Вы поможете существованию проекта. Заранее спасибо!
[*]x264 [info]: frame I:1143  Avg QP:17.19  size:108945
[*]x264 [info]: frame P:60595 Avg QP:19.49  size: 50420
[*]x264 [info]: frame B:185282 Avg QP:21.38  size: 13020
[*]x264 [info]: consecutive B-frames:  2.1%  4.6% 13.8% 26.9% 20.5% 25.9%  3.9%  1.4%  0.6%  0.3%  0.1%
Общее
Уникальный идентификатор                 : 202291287587602173101701816715671942317 (0x982FE283EA357317AEA0893E71A2B4AD)
Полное имя                               : D:Мне двадцать лет_1964-WEBRip 720p_KORSAR.mkv
Формат                                   : Matroska
Версия формата                           : Version 2
Размер файла                             : 5,85 Гбайт
Продолжительность                        : 2 ч. 44 м.
Общий поток                              : 5090 Кбит/сек
Название фильма                          : Мне двадцать лет_1964-WEBRip 720p_KORSAR
Дата кодирования                         : UTC 2019-05-10 22:24:42
Программа кодирования                    : mkvmerge v5.8.0 ('No Sleep / Pillow') built on Sep  2 2012 15:37:04
Библиотека кодирования                   : libebml v1.2.3 + libmatroska v1.3.0

Видео
Идентификатор                            : 1
Формат                                   : AVC
Формат/Информация                        : Advanced Video Codec
Профиль формата                          : High@L4.1
Настройки формата                        : CABAC / 12 Ref Frames
Параметр CABAC формата                   : Да
Параметр RefFrames формата               : 12 кадров
Идентификатор кодека                     : V_MPEG4/ISO/AVC
Продолжительность                        : 2 ч. 44 м.
Битрейт                                  : 4429 Кбит/сек
Ширина                                   : 940 пикселей
Высота                                   : 720 пикселей
Соотношение сторон                       : 4:3
Режим частоты кадров                     : Постоянный
Частота кадров                           : 25,000 кадров/сек
Цветовое пространство                    : YUV
Субдискретизация насыщенности            : 4:2:0
Битовая глубина                          : 8 бит
Тип развёртки                            : Прогрессивная
Бит/(Пиксели*Кадры)                      : 0.262
Размер потока                            : 5,09 Гбайт (87%)
Библиотека кодирования                   : x264 core 152 r2851kMod ba24899
Настройки программы                      : cabac=1 / ref=12 / deblock=1:-2:-2 / analyse=0x3:0x113 / me=umh / subme=10 / psy=1 / fade_compensate=0.00 / psy_rd=1.05:0.10 / mixed_ref=1 / me_range=40 / chroma_me=1 / trellis=2 / 8x8dct=1 / cqm=0 / deadzone=21,11 / fast_pskip=1 / chroma_qp_offset=-3 / threads=12 / lookahead_threads=3 / sliced_threads=0 / nr=0 / decimate=1 / interlaced=0 / bluray_compat=0 / constrained_intra=0 / bframes=10 / b_pyramid=2 / b_adapt=2 / b_bias=0 / direct=1 / weightb=1 / open_gop=0 / weightp=2 / keyint=250 / keyint_min=25 / scenecut=40 / intra_refresh=0 / rc=crf / mbtree=0 / crf=17.7000 / qcomp=0.63 / qpmin=0 / qpmax=30 / qpstep=4 / ip_ratio=1.40 / pb_ratio=1.30 / aq=1:0.90
Язык                                     : English
Default                                  : Да
Forced                                   : Нет
Цветовой диапазон                        : Limited
Основные цвета                           : BT.709
Характеристики трансфера                 : BT.709
Коэффициенты матрицы                     : BT.709

Аудио #1
Идентификатор                            : 2
Формат                                   : AC-3
Формат/Информация                        : Audio Coding 3
Коммерческое название                    : Dolby Digital
Идентификатор кодека                     : A_AC3
Продолжительность                        : 2 ч. 44 м.
Вид битрейта                             : Постоянный
Битрейт                                  : 448 Кбит/сек
Каналы                                   : 6 каналов
ChannelLayout                            : L R C LFE Ls Rs
Частота                                  : 48,0 КГц
Частота кадров                           : 31,250 кадров/сек (1536 SPF)
Битовая глубина                          : 16 бит
Метод сжатия                             : С потерями
Размер потока                            : 528 Мбайт (9%)
Язык                                     : Russian

Default                                  : Да
Forced                                   : Нет

Аудио #2
Идентификатор                            : 3
Формат                                   : AC-3
Формат/Информация                        : Audio Coding 3
Коммерческое название                    : Dolby Digital
Идентификатор кодека                     : A_AC3
Продолжительность                        : 2 ч. 44 м.
Вид битрейта                             : Постоянный
Битрейт                                  : 112 Кбит/сек
Каналы                                   : 1 канал
ChannelLayout                            : C
Частота                                  : 48,0 КГц
Частота кадров                           : 31,250 кадров/сек (1536 SPF)
Битовая глубина                          : 16 бит
Метод сжатия                             : С потерями
Размер потока                            : 132 Мбайт (2%)
Язык                                     : Russian
Default                                  : Нет
Forced                                   : Нет

Текст
Идентификатор                            : 4
Формат                                   : UTF-8
Идентификатор кодека                     : S_TEXT/UTF8
Идентификатор кодека/Информация          : UTF-8 Plain Text
Язык                                     : Russian
Default                                  : Нет
Forced                                   : Нет
http://img14.lostpic.net/2019/05/11/e0cd199d27f040b4f829459f7892cd6b.th.png  http://img14.lostpic.net/2019/05/11/0ef9840608dd5a64cdc26bca6ce0da08.th.png  http://img14.lostpic.net/2019/05/11/48bb348d0952eacb06cbd6d734b28636.th.png  http://img14.lostpic.net/2019/05/11/a277d5cf7d32bb75aecebbf5f254737e.th.png  http://img14.lostpic.net/2019/05/11/8a11d10966f7bbf67e2e3fc6f4c7ec46.th.png  http://img14.lostpic.net/2019/05/11/4de25f4971d2e6a93c20ab6b8e4a908d.th.png  http://img14.lostpic.net/2019/05/11/a712708935c3f1e28d3d6713ec6f74db.th.png  http://img14.lostpic.net/2019/05/11/1747b19c103b39292df94d0339ecaea4.th.png  http://img14.lostpic.net/2019/05/11/50616f10526d83c4a3ad7afeeca01122.th.png  http://img14.lostpic.net/2019/05/11/4164212a2fb1d5469d520e0ade9ba695.th.png  
http://korsar.tv/images/Banner-Korsar.gif http://korsar.tv/img/VKontakte.png
Похожих раздач нет


Привет, гость
- Запомнить
Регистрация
Информация

Торрент трекер ExKinoRay.TV

Здесь вы можете скачать новые фильмы, сериалы, игры, музыку, софт и многое другое. Большая скорость скачивания на мультитрекерных раздачах. Всё абсолютно бесплатно.