Город первой любви | 1970 | DVBRip - Торрнадо Одобрено администрацией

Участники
  • Раздают1
  • Качают0
  • Просмотров35
  • Скачали1
  • Комментариев3
  • Список файлов1
Залил раздачу
Поблагодарить
Характеристики
Вес1.09 GB (1,172,164,608)
Залит2019-09-24 20:27:54 Обновлено2019-09-24 20:28:37
Сетевая Нет
   http://i91.fastpic.ru/big/2018/1011/5e/e1e61dabe9bf30c25c2d2e6f349a065e.gif  http://s002.radikal.ru/i198/1306/cb/972fbdf9be7a.gif
Чтобы скачать, необходимо авторизоваться или зарегистрироваться.
Статус: Одобрено администрацией
Хотите видеть детали Раздачи пройдите авторизацию или регистрацию!

Спасибо за понимание...
General
Complete name               : C:\Users\Skipper\Desktop\Wacken\Gorod.pervoy.lyubvi.1970.XviD.DVBRip-Торрнадо.Лумина.avi
Format                      : AVI
Format/Info                 : Audio Video Interleave
File size                   : 1.09 GiB
Duration                    : 1 h 27 min
Overall bit rate            : 1 779 kb/s
Writing application         : VirtualDubMod 1.5.10.3 | www.virtualdub-fr.org || (build 2550/release)
Writing library             : VirtualDubMod build 2550/release

Video
ID                          : 0
Format                      : MPEG-4 Visual
Format profile              : Advanced Simple@L5
Format settings             : BVOP1 / Custom Matrix
Format settings, BVOP       : 1
Format settings, QPel       : No
Format settings, GMC        : No warppoints
Format settings, Matrix     : Custom
Codec ID                    : XVID
Codec ID/Hint               : XviD
Duration                    : 1 h 27 min
Bit rate                    : 1 578 kb/s
Width                       : 688 pixels
Height                      : 512 pixels
Display aspect ratio        : 1.275
Frame rate                  : 25.000 FPS
Color space                 : YUV
Chroma subsampling          : 4:2:0
Bit depth                   : 8 bits
Scan type                   : Progressive
Compression mode            : Lossy
Bits/(Pixel*Frame)          : 0.179
Stream size                 : 991 MiB (89%)
Writing library             : XviD 1.2.1 (UTC 2008-12-04)

Audio
ID                          : 1
Format                      : AC-3
Format/Info                 : Audio Coding 3
Codec ID                    : 2000
Duration                    : 1 h 27 min
Bit rate mode               : Constant
Bit rate                    : 192 kb/s
Channel(s)                  : 2 channels
Channel positions           : Front: L R
Sampling rate               : 48.0 kHz
Frame rate                  : 31.250 FPS (1536 SPF)
Bit depth                   : 16 bits
Compression mode            : Lossy
Stream size                 : 121 MiB (11%)
Alignment                   : Split accross interleaves
Interleave, duration        : 40  ms (1.00 video frame)
Interleave, preload duratio : 500  ms
Service kind                : Complete Main

https://a.radikal.ru/a37/1909/9d/a4605d8a0164t.jpg
https://c.radikal.ru/c19/1909/0c/53d5f2b09287t.jpg
https://d.radikal.ru/d11/1909/bc/222d3f56c4a8t.jpg
https://b.radikal.ru/b32/1909/9c/cbe7e658b6f2t.jpg
https://c.radikal.ru/c03/1909/72/e0b9054c8caet.jpg
https://a.radikal.ru/a28/1909/d4/045e59a70b91t.jpg

dumbia | 2019-09-26 18:10:20
 
Влад, а разве можно на кинозале набрать сайт и оказаться там?
Смотрим в Главном меню: Наши друзья/ партнеры
Можно зайти к партнерам, а можно и от них к сюда
Партнерство должно быть взаимным
  |

Vladislav71 | 2019-09-24 21:53:46
 
Спасибо Света за раздачу!!! С возвращением!!! Вот сколько прошло времени, я обращаюсь к администрации, когда все это закончится??? Почему не сделать так как на кинозале, просто набрал сайт и я там????? Мне лично это стало неудобно до ужаса, Наташа решайте там как лучше для людей, это было, с ув Влад
  |

Vladislav71 | 2019-09-24 21:45:06
 

  |

Страницы:  1 
Привет, гость
- Запомнить
Регистрация
Информация

Торрент трекер ExKinoRay.TV

Здесь вы можете скачать новые фильмы, сериалы, игры, музыку, софт и многое другое. Большая скорость скачивания на мультитрекерных раздачах. Всё абсолютно бесплатно.