The Rolling Stones - Bridges To Bremen 1998 | 2019 | BDRip - Лумина Одобрено администрацией

Участники
  • Раздают12
  • Качают4
  • Просмотров33
  • Скачали1
  • Комментариев0
  • Список файлов1
Залил раздачу
Поблагодарить
Никто
Характеристики
Вес2.74 GB (2,937,325,568)
Залит2019-10-13 12:27:25 Обновлено2019-10-13 12:27:46
Сетевая Да
  http://s002.radikal.ru/i198/1306/cb/972fbdf9be7a.gif
Чтобы скачать, необходимо авторизоваться или зарегистрироваться.
Статус: Одобрено администрацией
Хотите видеть детали Раздачи пройдите авторизацию или регистрацию!

Спасибо за понимание...
General
Complete name               : C:\Users\Skipper\Desktop\роллинг2\The.Rolling.Stones-Bridges.To.Bremen.2019.XviD.BDRip-Лумина.avi
Format                      : AVI
Format/Info                 : Audio Video Interleave
Format profile              : OpenDML
File size                   : 2.74 GiB
Duration                    : 2 h 29 min
Overall bit rate            : 2 611 kb/s
Writing application         : VirtualDubMod 1.5.10.3 | www.virtualdub-fr.org || (build 2550/release)
Writing library             : VirtualDubMod build 2550/release

Video
ID                          : 0
Format                      : MPEG-4 Visual
Format profile              : Advanced Simple@L5
Format settings             : BVOP1 / Custom Matrix
Format settings, BVOP       : 1
Format settings, QPel       : No
Format settings, GMC        : No warppoints
Format settings, Matrix     : Custom
Codec ID                    : XVID
Codec ID/Hint               : XviD
Duration                    : 2 h 29 min
Bit rate                    : 2 216 kb/s
Width                       : 720 pixels
Height                      : 544 pixels
Display aspect ratio        : 4:3
Frame rate                  : 23.976 (24000/1001) FPS
Color space                 : YUV
Chroma subsampling          : 4:2:0
Bit depth                   : 8 bits
Scan type                   : Progressive
Compression mode            : Lossy
Bits/(Pixel*Frame)          : 0.236
Stream size                 : 2.32 GiB (85%)
Writing library             : XviD 1.2.1 (UTC 2008-12-04)

Audio
ID                          : 1
Format                      : AC-3
Format/Info                 : Audio Coding 3
Codec ID                    : 2000
Duration                    : 2 h 29 min
Bit rate mode               : Constant
Bit rate                    : 384 kb/s
Channel(s)                  : 6 channels
Channel positions           : Front: L C R, Side: L R, LFE
Sampling rate               : 48.0 kHz
Frame rate                  : 31.250 FPS (1536 SPF)
Bit depth                   : 16 bits
Compression mode            : Lossy
Stream size                 : 412 MiB (15%)
Alignment                   : Split accross interleaves
Interleave, duration        : 42  ms (1.00 video frame)
Interleave, preload duratio : 500  ms
Service kind                : Complete Main

https://c.radikal.ru/c31/1910/a9/594b873eb950t.jpg
https://a.radikal.ru/a06/1910/bd/24665ad74eedt.jpg
https://a.radikal.ru/a25/1910/1b/db55fc9ff13bt.jpg
https://a.radikal.ru/a16/1910/40/0d6da62b8b74t.jpg
https://d.radikal.ru/d22/1910/23/009cd8a0f92ct.jpg
https://c.radikal.ru/c25/1910/4b/b1ecc2e15edct.jpg
01. (I Can't Get No) Satisfaction
02. Let's Spend The Night Together
03. Flip The Switch
04. Gimme Shelter
05. Anybody Seen My Baby?
06. Paint It Black
07. Saint Of Me
08. Out Of Control
09. Memory Motel
10. Miss You
11. Thief In The Night
12. Wanna Hold You
13. Its Only Rock 'n' Roll (But I Like It)
14. You Got Me Rocking
15. Like A Rolling Stone
16. Sympathy For The Devil
17. Tumbling Dice
18. Honky Tonk Women
19. Start Me Up
20. Jumpin' Jack Flash
21. You Can't Always Get What You Want
22. Brown Sugar


Привет, гость
- Запомнить
Регистрация
Информация

Торрент трекер ExKinoRay.TV

Здесь вы можете скачать новые фильмы, сериалы, игры, музыку, софт и многое другое. Большая скорость скачивания на мультитрекерных раздачах. Всё абсолютно бесплатно.